Printable Version of Topic

Click here to view this topic in its original format

Metal Area - Extreme Music Portal _ Archive _ Kawir & Nergal & Embrace Of Thorns & Soulskinner - Emissaries Of A Profane Advent [split] (2012)

Posted by: necroscum Jan 21 2013, 05:20:25

http://metalarea.org/images/audiocovers/2013_Jan/acov_tid192295.jpg

*Artist: http://metalarea.org/forum/index.php?showtopic=38153 & http://metalarea.org/forum/index.php?showtopic=38779 & http://metalarea.org/forum/index.php?showtopic=92367 & http://metalarea.org/forum/index.php?showtopic=181163
*Album: Emissaries Of A Profane Advent[split]
*Year: 2012
*Genre: Pagan/Black Metal | Black Metal | Black/Death Metal | Death Metal
*Country: Greece | Greece | Greece | Greece
*Format: mp3@CBR320kbps
*Size: 54MB

Tracklist:
Kawir:
01. Prometheus 06:42
Nergal:
02. Flegethon 04:49
Embrace Of Thorns:
03. Dismal Augur Of Hierophant Mass 04:52
Soulskinner:
04. 44 Caliber Killer 04:45
******************************
Total playing time: 21:08

http://www.myspace.com/kawir
http://www.myspace.com/nergalhellas
http://www.myspace.com/embraceofthorns
http://www.myspace.com/soulskinnergr

Extended info



Input File: 04. Soulskinner - 44 Caliber Killer.mp3
Channels : 2
Sample Rate : 44100
Precision : 16-bit
Duration : 00:04:45.73 = 12600517 samples = 21429.5 CDDA sectors
File Size : 11.4M
Bit Rate : 320k
Sample Encoding: MPEG audio (layer I, II or III)
Comments :
Title=B2.Soulskinner - 44 Caliber Killer.mp3
Artist=Soulskinner
Album=Emissaries Of A Profane
Tracknumber=4
Year=2012
Genre=Blues



[ Hidden Text ]
[ Hidden Text ]

Posted by: Абигор Jan 21 2013, 05:30:34

Added links by drbutcher

Posted by: inatas_eva_89 Jan 21 2013, 17:40:09

Кайф! не глядя понял откуда рип) Но всё равно благодарю!

Posted by: varlam4 Sep 7 2017, 17:28:04

[ Hidden Text ] 320

Powered by Invision Power Board
© Invision Power Services