Printable Version of Topic

Click here to view this topic in its original format

Metal Area - Extreme Music Portal _ Archive _ Evoke Thy Lords - Drunken Tales (2013)

Posted by: RUDACHUR Feb 17 2013, 16:53:44

http://metalarea.org/images/audiocovers/2013_Feb/acov_tid194360.jpg

*Artist: http://metalarea.org/forum/index.php?showtopic=289888
*Album: Drunken Tales
*Year: 2013
*Genre: Psychedelic Doom Metal
*Country: Russian Federation
*Format: mp3@CBR320kbps
*Size: 101MB

Tracklist:
1. Routine Of Life 09:13
2. Dirty Game 08:17
3. Down The Drain 07:17
4. Dregs 09:02
5. Cause Follows Effect 09:20
******************************
Total playing time: 43:09

http://www.myspace.com/evokethylords
http://evokethylords.bandcamp.com/

Extended info



Input File: 03. Down the Drain.mp3
Channels : 2
Sample Rate : 44100
Precision : 16-bit
Duration : 00:07:17.49 = 19293177 samples = 32811.5 CDDA sectors
File Size : 17.8M
Bit Rate : 326k
Sample Encoding: MPEG audio (layer I, II or III)
Comments :
Title=Down the Drain
Artist=Evoke Thy Lords
Album=Drunken Tales
Tracknumber=3
Year=2013



[ Hidden Text ]

Posted by: Un4given Feb 18 2013, 10:51:01

После унылейшего готик-митола наконец-то хоть что-то достойное: стоунер с гроулингом и арт-роковой флейтой и ритм-секцией.
К сожалению весь альбом за исключением бонуса Cause Follows Effect воспринимается как один трек, во многом именно из-за монотонного гроулинга. Если первый трек идет на ура, то 4-й звучит уже фоном. В последней композиции звучит женский голос, приятностью не отличающийся. В общем альбомчик на крепкую троечку.
Облога очень понравилась.

Posted by: Lightbringer Apr 9 2013, 17:07:56

Рецензия на альбом: http://www.metallibrary.ru/articles/reviews/8834.html
Плюс ноябрьское интервью: http://www.metallibrary.ru/articles/interviews/418.html

Posted by: SAPOGi Apr 30 2015, 13:40:08

Dirty Game понравилась.

Powered by Invision Power Board
© Invision Power Services