Printable Version of Topic

Click here to view this topic in its original format

Metal Area - Extreme Music Portal _ Archive _ Fulmination - Humanity's Dirge [best of/compilation] (2013)

Posted by: AskeFjell Oct 2 2013, 21:17:54

http://metalarea.org/images/audiocovers/2013_Oct/acov_tid209552.jpg

*Artist: Fulmination
*Album: Humanity's Dirge [best of/compilation]
*Year: 2013
*Genre: Death Metal
*Country: Sweden
*Format: mp3@CBR320kbps
*Size: 221MB

Tracklist:
Disc 1:
1. Entering Within 02:58
2. Sanity Dies 02:59
3. The Odious Night 02:40
4. Everlast 03:09
5. Through Fire 03:17
6. New Gods 02:58
7. The Legacy of Progress 03:56
8. Sanctuary of the Mind 03:35
9. Born to Obey 03:25
10. Stronger Than Life 04:06
11. Divine Invisibility 02:43
12. The Circle of Time 03:13
13. Pain Inflictor 03:49
14. Fading Illusions 04:24
15. The Seducer 03:48
16. Sons of Weakness 03:47
Disc 2:
17. The Righteous Few 03:49
18. The Seducer 03:31
19. Life Means Struggling Hard 03:41
20. Infected 03:45
21. Fading Illusions 04:07
22. Ancestors of the End to Be 03:41
23. Pain Inflictor 03:30
24. Apart 03:49
25. Through Fire 03:11
26. Sons of Weakness
******************************
Total playing time: 1:27:51

Extended info
Compilation of all their recorded works.

Disc 1:
Tracks 1-4 from the self-titled demo
Tracks 5-7 from the "Through Fire" demo
Tracks 8-12 from "Promo '93"
Tracks 13-16: live tracks (from split CD "Live from Musikhuset 1994")

Disc 2: All tracks from "Fading Illusions Promo 1994"


Technical info

Input File: 1-01 Entering Within.mp3
Channels : 2
Sample Rate : 44100
Precision : 16-bit
Duration : 00:00:06.40 = 282240 samples = 480 CDDA sectors
File Size : 256k
Bit Rate : 320k
Sample Encoding: MPEG audio (layer I, II or III)
Comments :
Title=Entering Within
Artist=Fulmination
Album=Humanity's Dirge
Tracknumber=1
Year=2013
Genre=22



[ Hidden Text ]
[ Hidden Text ]

Posted by: Proteus_666 Oct 3 2013, 00:09:58

both links are for Disk 1, please make a link for Disk 2.

Posted by: AskeFjell Oct 3 2013, 00:43:29

Sorry, my mouse is a bit broken and no copy/paste good. Here is the link for the second disc:

ЦИТАТА(rickzammuto @ Oct 3 2013, 01:15:07) *
Обе ссылки идут только диск 1.

It looks like both links go only to disc 1.

http://www.Mediafire.com/download/c6hh1yply46dze5/Fulmination_-_2013_-_Humanity'_-_By_AskeFjell%5BMetalarea.org%5D.rar s_Dirge_ (Disc_1)

http://www.Mediafire.com/download/c6hh1yply46dze5/Fulmination_-_2013_-_Humanity'_-_By_AskeFjell%5BMetalarea.org%5D.rar s_Dirge_ (Disc_2)

Here:
[ Hidden Text ]

Posted by: NyarlathotepHY Oct 3 2013, 02:51:59

Rusfolder Please, pray.gif

Posted by: Proteus_666 Oct 3 2013, 05:15:00

ЦИТАТА(NyarlathotepHY @ Oct 3 2013, 04:51:59) *
Rusfolder Please, pray.gif

оба диска в одной папке (TWO DISCS IN 1 FOLDER):
[ Hidden Text ]

Posted by: NyarlathotepHY Oct 3 2013, 07:17:40

QUOTE(Proteus_666 @ Oct 3 2013, 05:15:00) *
оба диска в одной папке:



Thank You \m/

Posted by: abob Oct 3 2013, 07:49:50

Как же здорово, что делают такие вот компиляции pray.gif

Posted by: Dmitry1977 Oct 3 2013, 19:51:08

Это очень хорошая компиляха. Вотъ.

Posted by: sperminator Feb 24 2017, 08:42:41

from the web
[ Hidden Text ]

Posted by: deatholocaust Jul 23 2019, 17:36:32

lossless please

Powered by Invision Power Board
© Invision Power Services