Printable Version of Topic

Click here to view this topic in its original format

Metal Area - Extreme Music Portal _ Archive _ Redimoni - Standing Before The End Of Time (2012)

Posted by: Samaritianin Oct 22 2013, 13:01:45

http://metalarea.org/images/audiocovers/2013_Oct/acov_tid210878.jpg

*Artist: Redimoni
*Album: Standing Before The End Of Time
*Year: 2012
*Genre: Thrash Metal
*Country: Spain
*Format: mp3@CBR320kbps
*Size: 82MB

Tracklist:
01.The End Times 01:19
02.Cast Into the Valley of Hinnom 02:52
03.Shrapnel Wounds 02:49
04.To The Gallows 02:52
05.Towards Destruction 02:51
06.Journey to the Netherworld 04:33
07.Drifting Into Oblivion 02:39
08.The Abyss 03:39
09.Pragmatic Sorcery 03:08
10.Dragged to the Bottom of the Depths 03:39
11.Facing Pazuzu 02:51
12.The Ultimate Victory 03:33
******************************
Total playing time: 36:45

http://redimoni.bandcamp.com/album/standing-before-the-end-of-time-2

Technical info

Input File: 02 - Cast into the Valley of Hinnom.mp3
Channels : 2
Sample Rate : 44100
Precision : 16-bit
Duration : 00:02:52.18 = 7592918 samples = 12913.1 CDDA sectors
File Size : 6.89M
Bit Rate : 320k
Sample Encoding: MPEG audio (layer I, II or III)
Comments :
Title=Cast into the Valley of Hinnom
Artist=ReDimoni
Album=Standing Before the End of Time
Tracknumber=2
Year=2012
Genre=Thrash Metal



[ Hidden Text ]

Posted by: pprr Oct 22 2013, 15:57:08

whats happen with rusfolder now, it says error This file is not available for teh.prichine (no_storages)

Posted by: diflock Oct 23 2013, 07:10:28

rusfolder in order, downloading is under way, as well, and the material itself umatny despite the singer.
... the sixth track vocal strain stopped, everything is fine.

Posted by: sperminator Sep 30 2016, 20:26:38

from the web - lossless
[ Hidden Text ]

Posted by: kastrup Jan 12 2021, 19:32:13

Could anyone re-up this one, please ? pray.gif pray.gif 9.gif 22.gif

Posted by: Borderline1991 Jan 13 2021, 16:07:21

[ Hidden Text ]

Posted by: kastrup Jan 13 2021, 16:38:50

Thank you so much, my metal sis ! pray.gif pray.gif pray.gif

QUOTE(Borderline1991 @ Jan 13 2021, 15:07:21) *


Powered by Invision Power Board
© Invision Power Services