Printable Version of Topic

Click here to view this topic in its original format

Metal Area - Extreme Music Portal _ Archive _ Redeye - Violence [ep] (2013)

Posted by: Samaritianin Nov 22 2013, 14:05:11

http://metalarea.org/images/audiocovers/2013_Nov/acov_tid212974.jpg

*Artist: Redeye
*Album: Violence [ep]
*Year: 2013
*Genre: Death/Thrash Metal
*Country: Finland
*Format: mp3@CBR320kbps
*Size: 28MB

Tracklist:
01.Pit of Blood 03:54
02.Visions of Violence 03:10
03.Die Die Die 01:09
04.Cut Open 02:51
******************************
Total playing time: 11:04

https://www.facebook.com/redeye.metal?ref=stream

Technical info

Input File: 02. Visions of Violence.mp3
Channels : 2
Sample Rate : 44100
Precision : 16-bit
Duration : 00:03:11.00 = 8423188 samples = 14325.1 CDDA sectors
File Size : 8.55M
Bit Rate : 358k
Sample Encoding: MPEG audio (layer I, II or III)
Comments :
Title=Visions of Violence
Artist=REDEYE
Album=Violence
Tracknumber=2
Year=2013
Genre=22



[ Hidden Text ]

Posted by: Genuine Thrashiac Jul 18 2016, 18:52:33

early them
http://metalarea.org/forum/index.php?showtopic=146948
http://metalarea.org/forum/index.php?showtopic=184157

Posted by: gorim Oct 18 2020, 05:48:26

320

[ Hidden Text ]

Powered by Invision Power Board
© Invision Power Services