Printable Version of Topic

Click here to view this topic in its original format

Metal Area - Extreme Music Portal _ Archive _ Bodyfarm - The Coming Scourge (2013)

Posted by: aesteticvice Nov 30 2013, 12:37:14

http://metalarea.org/images/audiocovers/2013_Nov/acov_tid213601.jpg

*Artist: Bodyfarm
*Album: The Coming Scourge
*Year: 2013
*Genre: Old School Death Metal
*Country: Netherlands
*Format: mp3@CBR320kbps
*Size: 87MB

Tracklist:
01. Unbroken
02. Frontline Massacre
03. Vortex Of Terror
04. The Coming Scourge
05. Eden´s Destruction
06. The Well Of Decay
07. The Frozen Halls
08. Der Landkreuzer
09. The Siege Of The Mind
10. Enter The Eternal Fire (Bathory Cover)
******************************
Total playing time: 38:38

https://www.facebook.com/Bodyfarmdeathmetal

Extended info
Quint Meerbeek - drums
Thomas Wouters - guitars/vox
Mathieu Westerveld - bass
Bram Hilhorst - guitars



Technical info

Input File: (02) [Bodyfarm] Frontline Massacre.mp3
Channels : 2
Sample Rate : 44100
Precision : 16-bit
Duration : 00:03:21.38 = 8880858 samples = 15103.5 CDDA sectors
File Size : 8.06M
Bit Rate : 320k
Sample Encoding: MPEG audio (layer I, II or III)
Comments :
Title=Frontline Massacre
Artist=Bodyfarm
Album=The Coming Scourge
Tracknumber=02
Year=2013
Genre=Death Metal



[ Hidden Text ]

Posted by: slack Nov 30 2013, 17:23:38

banana.gif banana.gif banana.gif

Posted by: judaz Dec 1 2013, 06:13:52

Бодренькое такое рубилово, судя по превью. Возьму на заметку.

Posted by: Samaritianin Dec 1 2013, 06:48:29

[ Hidden Text ] 314 mb

Posted by: neoatheist Dec 1 2013, 11:09:24

Огромное спасибо за 320 и лося, господа! 9.gif 9.gif 9.gif Очень ждал: для меня это едва ли не альбом года в жанре! banana.gif banana.gif banana.gif

Posted by: swed Dec 3 2013, 07:55:07

Спасибо за 320 (хотя вариант с низким битрейтом тоже был очень неплох)

Posted by: KVRT Mar 4 2014, 16:31:33

запахло порохом и напалмом...
очень радует слух 9.gif

Posted by: BRUTAL06 Nov 6 2015, 12:28:57

downloaded in 320 9.gif

Posted by: sperminator Sep 21 2019, 19:20:54

320 kbps @ CD-rip
[ Hidden Text ]

Powered by Invision Power Board
© Invision Power Services