Printable Version of Topic

Click here to view this topic in its original format

Metal Area - Extreme Music Portal _ Archive _ Blood Farmers - Headless Eyes (2014)

Posted by: eyehategod Mar 27 2014, 02:22:56

http://metalarea.org/images/audiocovers/2014_Mar/acov_tid220743.jpg

*Artist: Blood Farmers
*Album: Headless Eyes
*Year: 2014
*Genre: Doom Metal
*Country: United States
*Format: mp3@CBR320kbps
*Size: 97MB

Tracklist:
1. Gut Shot 06:17
2. Headless Eyes 10:49
3. The Creeper 04:51
4. Thousand-Yard Stare 06:34
5. Night of the Sorcerers 10:15
6. The Road Leads to Nowhere (David Hess cover) 05:59
******************************
Total playing time: 44:45

http://www.youtube.com/watch?v=YyPTttZBfXI

Technical info

Input File: 01 - Gut Shot.mp3
Channels : 2
Sample Rate : 44100
Precision : 16-bit
Duration : 00:06:17.60 = 16652160 samples = 28320 CDDA sectors
File Size : 15.1M
Bit Rate : 320k
Sample Encoding: MPEG audio (layer I, II or III)
Comments :
Title=Gut Shot
Artist=Blood Farmers
Album=Headless Eyes
Tracknumber=01/06
Year=2014
Genre=Doom Metal
Discnumber=1/1



[ Hidden Text ]

Posted by: drbutcher Mar 27 2014, 17:41:21

это круто pray.gif... деды молодцы

Posted by: AHBAnep Mar 28 2014, 18:08:32

#2 - 256 Kbps, и спектр там в пределах 16 КГц...

Posted by: vosmidesijatye Jan 20 2015, 20:59:39

9 лет прошло - ровным счётом ничего не изменилось. А оно вам надо? Мне - категорически-катастрофически нет. Облога стала ещё причудливо-кошмарнее, всё лучшее в вокале и музыке осталось на прежних местах. А большего и не надо. Милости прошу, кому интересен настоящий сермяжный дум. С кровавых полей психованных фермеров.

Posted by: KVRT Jan 20 2015, 22:07:39



такого добра, да по-больше бып

Posted by: milan Feb 22 2018, 22:14:07

Can someone please reupload this?

Posted by: vosmidesijatye Feb 22 2018, 22:16:38

@320

[ Hidden Text ]

Posted by: babanguida Jun 13 2018, 20:21:20

nice one 9.gif

Powered by Invision Power Board
© Invision Power Services