Printable Version of Topic

Click here to view this topic in its original format

Metal Area - Extreme Music Portal _ Archive _ Winterblood - Scherbengericht [single] (2014)

Posted by: deathic Jun 15 2014, 22:51:48

http://metalarea.org/images/audiocovers/2014_Jun/acov_tid225797.JPG

*Artist: Winterblood
*Album: Scherbengericht (Ytterligare ett steg närmare total jävla utfrysning - Shining Cover)[single]
*Year: 2014
*Genre: Atmospheric/Post Black Metal
*Country: Germany
*Format: mp3@CBR320kbps
*Size: 14MB

Tracklist:
01. Scherbengericht (Ytterligare ett steg närmare total jävla utfrysning - Shining Cover)

******************************
Total playing time: 6:31

https://www.youtube.com/watch?v=lYk8RkK_7Ro
https://www.facebook.com/Winterbloodband
http://winterblood.bandcamp.com/

Extended info

https://www.facebook.com/Winterbloodband
http://winterblood.bandcamp.com/


Technical info

Input File: Winterblood - Scherbengericht (Ytterligare ett steg närmare total jävla utfrysning - Shining Cover).mp3
Channels : 2
Sample Rate : 44100
Precision : 16-bit
Duration : 00:06:31.29 = 17255757 samples = 29346.5 CDDA sectors
File Size : 15.7M
Bit Rate : 320k
Sample Encoding: MPEG audio (layer I, II or III)
Comments :
Title=Scherbengericht (Ytterligare ett steg närmare total jävla utfrysning - Shining Cover)
Artist=Winterblood
Album=Scherbengericht
Tracknumber=1
Year=2014
Genre=Black Metal



[ Hidden Text ]

Powered by Invision Power Board
© Invision Power Services