Printable Version of Topic

Click here to view this topic in its original format

Metal Area - Extreme Music Portal _ Archive _ Einvera - In Your Image (2011)

Posted by: necroscum Feb 25 2015, 11:44:16

https://metalarea.org/images/audiocovers/2015_Feb/acov_tid240238.jpg

*Artist: Einvera
*Album: In Your Image
*Year: 2011
*Genre: Avant-Garde/Extreme Metal
*Country: United States
*Format: mp3@CBR320kbps
*Size: 76MB

Tracklist:
01. Static Ascension 03:54
02. Let In Without A Name (Sea Of Trees) 04:57
03. Invariably Transient 04:13
04. Send Me Home 02:06
05. Prismatic Distortion 04:35
06. In Your Image 06:01
07. The Gift Of A Ghost 02:50
08. A Mausoleum For The Living 04:39
******************************
Total playing time: 33:15

https://myspace.com/einvera1
https://www.facebook.com/einvera
http://www.reverbnation.com/einvera

Technical info

Input File: 02. Let in Without a Name (Sea of Trees).mp3
Channels : 2
Sample Rate : 44100
Precision : 16-bit
Duration : 00:04:57.10 = 13101890 samples = 22282.1 CDDA sectors
File Size : 11.9M
Bit Rate : 320k
Sample Encoding: MPEG audio (layer I, II or III)
Comments :
Title=Let in Without a Name (Sea of Trees)
Artist=Einvera
Album=In Your Image
Tracknumber=02
Year=2011



[ Hidden Text ]

Posted by: Baalslayer Feb 26 2015, 01:58:43

https://soundcloud.com/einvera

Posted by: BlackArrow Apr 21 2016, 08:51:34

Перезалейте пожалуйста!

Posted by: Angren Aug 29 2017, 01:16:23

Очень качественный альбом, тут хорошо соблюден баланс безумия и тяжести

Posted by: wendigo Aug 29 2017, 07:27:14

QUOTE(BlackArrow @ Apr 21 2016, 09:51:34) *
Перезалейте пожалуйста!

From the webz (Dark-World):
[ Hidden Text ]

Posted by: Astralgeist Jan 15 2021, 15:14:48

320
[ Hidden Text ]

Powered by Invision Power Board
© Invision Power Services