Printable Version of Topic

Click here to view this topic in its original format

Metal Area - Extreme Music Portal _ Archive _ Magna Umbra - Someone At Your Door (2015)

Posted by: necroscum Aug 28 2015, 13:41:34

https://metalarea.org/images/audiocovers/2015_Aug/acov_tid251626.jpg

*Artist: Magna Umbra
*Album: Someone At Your Door
*Year: 2015
*Genre: Symphonic Metal
*Country: Brazil
*Format: mp3@VBR237kbps
*Size: 83MB

Tracklist:
01. I Am My Own God 04:48
02. Dolce Ardor 03:04
03. About Stars 05:34
04. Hark Manat 05:44
05. Is Over 04:01
06. Abysso 02:30
07. Insane 05:14
08. Force To Face 04:23
09. Beyond Forever 06:46
10. Someone At Your Door 04:22
******************************
Total playing time: 46:26

https://www.facebook.com/MagnaUmbra
https://www.youtube.com/watch?v=UzPwyJL36Ns

Extended info

Input File: 09 - Beyond Forever.mp3
Channels : 2
Sample Rate : 44100
Precision : 16-bit
Duration : 00:06:46.73 = 17936617 samples = 30504.5 CDDA sectors
File Size : 12.6M
Bit Rate : 248k
Sample Encoding: MPEG audio (layer I, II or III)
Comments :
Title=Beyond Forever
Artist=Magna Umbra
Album=Someone at your door
Tracknumber=9
Year=2015
Genre=Metal


[ Hidden Text ]

Posted by: RotAnus Sep 16 2020, 18:57:12

320 [ Hidden Text ]

Powered by Invision Power Board
© Invision Power Services