Printable Version of Topic

Click here to view this topic in its original format

Metal Area - Extreme Music Portal _ Archive _ Hevilan - The End Of Time (2013)

Posted by: necroscum Nov 17 2015, 12:17:15

https://metalarea.org/images/audiocovers/2015_Nov/acov_tid256790.jpg

*Artist: Hevilan
*Album: The End Of Time
*Year: 2013
*Genre: Progressive Power/Thrash Metal
*Country: Brazil
*Format: mp3@CBR320kbps
*Size: 180MB

Tracklist:
01. Regenesis 04:02
02. Shades Of War 05:12
03. Minus Is Call 05:37
04. End Of Time 05:46
05. Desire Of Destruction 03:21
06. Sanctum Imperium 04:53
07. Dark Throne Of Babylon 03:56
08. Son Of Messiah 06:14
09. Loneliness 06:50
10. Shades Of War (Extended Version Feat. Warrel Dane) (Bonus Track) 06:06
11. Quest Of Illusion 2014 (Bonus Track) 06:07
******************************
Total playing time: 58:04

https://myspace.com/hevilanmetal
https://www.facebook.com/Hevilan
https://www.youtube.com/watch?v=mhVMsmueqH0

Extended info
CD-rip with scans


Technical info

Input File: 02. Shades Of War.mp3
Channels : 2
Sample Rate : 44100
Precision : 16-bit
Duration : 00:05:12.59 = 13785087 samples = 23444 CDDA sectors
File Size : 12.5M
Bit Rate : 320k
Sample Encoding: MPEG audio (layer I, II or III)
Comments :
Title=Shades Of War
Artist=Hevilan
Album=The End Of Time
Tracknumber=2
Year=2015



[ Hidden Text ]

Posted by: DenisKov Nov 17 2015, 17:44:30



Без откровений, но все прилежно.

Posted by: Lion Nov 19 2015, 10:13:26

[ Hidden Text ]

Posted by: Ulfhethnaar Aug 8 2017, 16:25:59

135 mb/320 кб/с
[ Hidden Text ]

Posted by: Ingvar Jun 12 2019, 19:46:21

136 mb/320 kbps
[ Hidden Text ]

Powered by Invision Power Board
© Invision Power Services