Printable Version of Topic

Click here to view this topic in its original format

Metal Area - Extreme Music Portal _ Archive _ Brainstorm - Scary Creatures (2016)

Posted by: gm_user Jan 14 2016, 20:37:33

https://metalarea.org/images/audiocovers/2016_Jan/acov_tid260413.jpg

*Artist: https://metalarea.org/forum/index.php?showtopic=100143
*Album: Scary Creatures
*Year: 2016
*Genre: Heavy/Power Metal
*Country: Germany
*Format: mp3@CBR320kbps
*Size: 115MB

Tracklist:
01. The World to See 05:12
02. How Much Can You Take 04:14
03. We Are... 05:29
04. Where Angels Dream 04:40
05. Scary Creatures 05:29
06. Twisted Ways 05:25
07. Caressed by the Blackness 04:31
08. Scars in Your Eyes 04:27
09. Take Me to the Never 05:07
10. Sky Among the Clouds 05:04
******************************
Total playing time: 49:38

Technical info

Input File: 02. How Much Can You Take.mp3
Channels : 2
Sample Rate : 44100
Precision : 16-bit
Duration : 00:04:14.07 = 11204355 samples = 19055 CDDA sectors
File Size : 10.2M
Bit Rate : 322k
Sample Encoding: MPEG audio (layer I, II or III)
Comments :
Title=How Much Can You Take
Artist=Brainstorm
Album=Scary Creatures
Tracknumber=02
Year=2016
Genre=Power Metal
Discnumber=1/1



[ Hidden Text ]

Posted by: Olrak Jan 14 2016, 20:55:26

hmm.gif
http://www.youtube.com/watch?v=b1SNdNG2ZJk

Posted by: Mick Dundee Jan 14 2016, 21:13:38

ЦИТАТА(Olrak @ Jan 14 2016, 22:55:26) *
hmm.gif
http://www.youtube.com/watch?v=b1SNdNG2ZJk


а что не так то ? смайл какой то не понятный . Музло в их стиле,и я считаю что оно офигенное. До этого клип был просто шикарный...


Posted by: varlam4 Jan 14 2016, 22:46:44

[ Hidden Text ] 320

Posted by: DenisKov Jan 15 2016, 06:01:49

Хорошо изготовленная жвачка.

Posted by: Andrew Jan 15 2016, 07:53:11

ЦИТАТА(DenisKov @ Jan 15 2016, 09:01:49) *
Хорошо изготовленная жвачка.


Полностью согласен. На мой взгляд такая же история как с Аксель Руди Пелл: все хорошо, шаблонно, стандартно...короче копирование самих себя! 6.gif

Posted by: zauber1 Jan 15 2016, 18:10:21

Одна из редких групп, которые умудряются при бешенном ритме композиций звучать уныло.

Posted by: 1000va Jan 19 2016, 01:11:08

http://adf.ly/1VQBXH

Posted by: Ulfhethnaar Sep 19 2016, 08:01:56

Рабочая ссылка
[ Hidden Text ]

Powered by Invision Power Board
© Invision Power Services