Printable Version of Topic

Click here to view this topic in its original format

Metal Area - Extreme Music Portal _ Archive _ Chambre Froide - Rouges Chapelles (2016)

Posted by: Velmi Dec 14 2016, 19:39:53

http://metalarea.org/images/audiocovers/2016_Dec/acov_tid279835.jpg

*Artist: http://metalarea.org/forum/index.php?showtopic=306725
*Album: Rouges Chapelles
*Year: 2016
*Genre: Raw Black Metal
*Country: France
*Format: mp3@CBR320kbps
*Size: 76MB

Tracklist:
1. L'Opprobre 05:54
2. Sans Lumière 04:49
3. Pilori. Fange. Meurtre. 05:15
4. Cicatrices 04:50
5. Les Enfants De Baal 06:22
6. Rouges Chapelles 05:46
******************************
Total playing time: 32:56

Extended info
Tape-rip


Technical info

Input File: 04. Cicatrices.mp3
Channels : 2
Sample Rate : 48000
Precision : 16-bit
Duration : 00:04:50.83 = 13960080 samples ~ 21812.6 CDDA sectors
File Size : 11.7M
Bit Rate : 323k
Sample Encoding: MPEG audio (layer I, II or III)
Comments :
Title=Cicatrices
Artist=Chambre Froide
Album=Rouges Chapelles
Tracknumber=04/06
Year=2016
Genre=Raw Black Metal



[ Hidden Text ]

Posted by: Абигор Dec 14 2016, 20:26:13

Прямой линк -
[ Hidden Text ]

Posted by: Orkkh Dec 15 2016, 08:54:33

для ознакомления: https://www.youtube.com/watch?v=Y97RO1Cfi0U

Posted by: jeanclaudehongstein Mar 1 2017, 20:12:15

Any chance someone can re-up?

Posted by: rom666 Mar 3 2017, 18:54:00

[ Hidden Text ]

Posted by: jeanclaudehongstein Mar 6 2017, 01:07:13

Thank you!

Posted by: sacrut Jun 12 2019, 21:47:29

nice release, love the sound 20.gif 20.gif

Powered by Invision Power Board
© Invision Power Services