Printable Version of Topic

Click here to view this topic in its original format

Metal Area - Extreme Music Portal _ Archive _ Caustic - Murder The World [single] (2017)

Posted by: Хогги Jul 15 2017, 11:04:41

http://metalarea.org/images/audiocovers/2017_Jul/acov_tid291583.jpg

*Artist: Caustic
*Album: Murder The World [single]
*Year: 2017
*Genre: Death/Doom Metal
*Country: Denmark
*Format: mp3@CBR320kbps
*Size: 35MB

Tracklist:
01. Murder the World 7:55
02. Liberation 6:20
******************************
Total playing time: 14:15

https://causticdk.bandcamp.com/album/murder-the-world

Technical info

Input File: 01. Murder the World.mp3
Channels : 2
Sample Rate : 44100
Precision : 16-bit
Duration : 00:07:55.45 = 20967345 samples = 35658.8 CDDA sectors
File Size : 19.2M
Bit Rate : 323k
Sample Encoding: MPEG audio (layer I, II or III)
Comments :
Title=Murder the World
Artist=Caustic
Album=Murder the World (Single)
Tracknumber=1
Year=2017
Genre=Death/Doom Metal



[ Hidden Text ]

Posted by: aesteticvice Jul 15 2017, 11:26:50

зеркало в один клик, максимум спид crazy.gif
[ Hidden Text ]

Posted by: DeathCoveR Jul 15 2017, 19:25:43

Довольно бледная попытка скопировать Graveyard Dirt.В любом случае, - откровенно слабо.

Posted by: Un4given Jul 15 2017, 20:03:56

охренительно! metaler.gif

Posted by: Alc Jul 15 2017, 20:53:16

помню "An Integral Sense" 1991 был ничошный, а вот Timid Reality понравился.... это было самое начало 90х)) послушаю. bye.gif

Posted by: avather Jul 15 2017, 21:32:31

Я хз, кто кого копирует, но материал вполне себе. Под темный Munhell Porter заходит просто норм

Posted by: Old Vyaine Jul 16 2017, 09:05:54

QUOTE(DeathCoveR @ 15th July 2017 - 21:25:43) *
откровенно слабо

QUOTE(Un4given @ 15th July 2017 - 22:03:56) *
охренительно!


Собственно, понятно, кому верить.

Posted by: sehz Jul 16 2017, 10:17:57

ЦИТАТА(DeathCoveR @ Jul 15 2017, 19:25:43) *
Довольно бледная попытка скопировать Graveyard Dirt.В любом случае, - откровенно слабо.

НУ если учесть, что Caustic первое демо записали в 91, то речь ни о каком копировании не идет. Обе банды хороши. А сингл хорош.

Powered by Invision Power Board
© Invision Power Services