Printable Version of Topic

Click here to view this topic in its original format

Metal Area - Extreme Music Portal _ Archive _ TumourBoy - Condemned To Extinction (2018)

Posted by: Samaritianin Jan 10 2018, 15:32:24

http://metalarea.org/images/audiocovers/2018_Jan/acov_tid300338.jpg

*Artist: TumourBoy
*Album: Condemned To Extinction
*Year: 2018
*Genre: Old School Thrash Metal
*Country: China
*Format: mp3@CBR320kbps
*Size: 90MB

Tracklist:
1. Armageddon 02:39
2. Cycle of Human Violence 03:02
3. Fatal Extermination 03:50
4. Executed 03:57
5. Infected Thoughts 03:36
6. Acid Rain 04:04
7. After Earthquake 01:48
8. Command to Kill 02:42
9. Kiss My Ass 03:26
10. Reign by Tyranny 03:23
11. Run for Your Life 03:09
12. Push It to the Limit (Paul Engemann cover) 03:08
******************************
Total playing time: 38:44

https://tumourboy.bandcamp.com/album/condemned-to-extinction
https://www.facebook.com/TUMOURBOY

Extended info


Technical info

Input File: 02 Cycle of Human Violence.mp3
Channels : 2
Sample Rate : 44100
Precision : 16-bit
Duration : 00:03:03.06 = 8072814 samples = 13729.3 CDDA sectors
File Size : 7.41M
Bit Rate : 324k
Sample Encoding: MPEG audio (layer I, II or III)
Comments :
Title=Cycle Of Human Violence
Artist=Tumourboy
Album=Condemned To Extinction
Tracknumber=02
Year=2018



[ Hidden Text ]

Posted by: Samaritianin Jan 10 2018, 17:34:35

[ Hidden Text ]

Posted by: AHBAnep Jan 10 2018, 17:44:12

Они прибавили? И порося лучше визжит, и звук поплотнее?

Posted by: Genuine Thrashiac Jan 10 2018, 18:42:59

AHBAnep, по ходу - да.
И такое ощущение, как если бы американцы исполняли вот это вот всё.

Posted by: terrano2006 Jan 10 2018, 21:17:16

Дивненько, легко и приятно гоняется по кругу.
11. трек вставил рокнроллом))

Posted by: Andrew Jan 10 2018, 21:21:01

А ведь действительно очень добротно исполнено!
По сравнению с дебютом и саунд насыщеннее и вокал не такой пискляво-противнообразный.

Posted by: neoatheist Jan 10 2018, 22:13:00

Ждал. Спасибо! 9.gif

Posted by: diflock Jan 11 2018, 00:53:10

Забыл о них, группа китайских товарищей порадовала, буду еще слушать!

Posted by: russ777 Jan 11 2018, 14:20:45

-Неожиданно понравилось... вполне качественный материал banana.gif
(а интересно, вначале 10-го трека "...слава нашему великому народу.." это какая-то архивная речь Сталина ? )
Релизёру 9.gif

Posted by: WX419 Jan 11 2018, 15:32:55

肿瘤男孩!!!

Posted by: russ777 Jan 11 2018, 18:56:14

ЦИТАТА(WX419 @ 11th January 2018 - 16:32:55) *
肿瘤男孩

- Воистину 肿瘤男孩 smile1.gif

Posted by: DTGB Jan 11 2018, 19:01:07

Спасибо!
2 года не прошли даром. Группа подросла. Впрочем, я и на первом альбоме прусь! metaler.gif metaler.gif metaler.gif

Posted by: russ777 Jan 11 2018, 19:08:39

ЦИТАТА(DTGB @ 11th January 2018 - 20:01:07) *
Группа подросла. Впрочем, я и на первом альбоме прусь!

А меня больше прёт вот это : http://metalarea.org/forum/index.php?showtopic=300245

Posted by: Asketto Jan 12 2018, 22:03:16

не заслуженно вы тут нахвалили. от меня жирный минус. хотя может любителям прикроссоверного треша и понравится. я в этих визгах путаюсь и пытасюь вырватсья как рыба из сетей.

Posted by: neoatheist Jan 13 2018, 17:07:01

ЦИТАТА(Asketto @ Jan 13 2018, 01:03:16) *
не заслуженно вы тут нахвалили. от меня жирный минус. хотя может любителям прикроссоверного треша и понравится. я в этих визгах путаюсь и пытасюь вырватсья как рыба из сетей.


Лично я ожидаемо кайфанул от альбома китайцев. Так что на вкус и цвет... bye.gif

Posted by: avkruchinin Jan 20 2018, 12:50:24

Молодцы члены) Поднебесной, второй альбом, ничего нового и откровенного, но технично и с куражом.

Posted by: zolotoiskatel Feb 3 2018, 11:57:29

ЦИТАТА(avkruchinin @ Jan 20 2018, 14:50:24) *
Молодцы члены) Поднебесной, второй альбом, ничего нового и откровенного, но технично и с куражом.

Воистину олдскул

Posted by: avkruchinin Feb 3 2018, 12:09:02

ЦИТАТА(zolotoiskatel @ Feb 3 2018, 13:57:29) *
Воистину олдскул

Во истину аллах акбар 25.gif

Сам-то куда пропал, чего-то давно не видать было?

Powered by Invision Power Board
© Invision Power Services