Printable Version of Topic

Click here to view this topic in its original format

Metal Area - Extreme Music Portal _ Archive _ Commander - Fatalis (The Unbroken Circle) (2018)

Posted by: necroscum Apr 12 2018, 16:44:49

https://metalarea.org/images/audiocovers/2018_Apr/acov_tid304572.jpg

*Artist: Commander
*Album: Fatalis (The Unbroken Circle)
*Year: 2018
*Genre: Death Metal
*Country: Germany
*Format: mp3@CBR320kbps
*Size: 89MB

Tracklist:
01. Fatalis (The Unbroken Circle) 05:20
02. Locust Infestation 04:31
03. Chaos Awakening 03:52
04. New Slave Democracy 03:57
05. Insidious Greed 06:15
06. Invidia 03:37
07. Superbia 04:33
08. And Death Swings The Scythe 06:07
09. Shattered Existence 03:04
******************************
Total playing time: 41:16

https://www.facebook.com/commandermetalmunich/
https://commandermetalmunich.bandcamp.com/album/fatalis-the-unbroken-circle

Technical info

Input File: 2 Locust Infestation.mp3
Channels : 2
Sample Rate : 44100
Precision : 16-bit
Duration : 00:04:31.13 = 11956701 samples = 20334.5 CDDA sectors
File Size : 11.0M
Bit Rate : 326k
Sample Encoding: MPEG audio (layer I, II or III)
Comments :
Title=Locust Infestation
Artist=Commander
Album=Fatalis (The Unbroken Circle)
Tracknumber=2/9
Year=2018
Genre=9
Discnumber=1/1



[ Hidden Text ]

Posted by: Andrew Apr 15 2018, 21:08:12

[ Hidden Text ]

Кстати, а альбом то очень приличный! 20.gif

Posted by: Andrew Feb 27 2019, 21:50:52

[ Hidden Text ]

Powered by Invision Power Board
© Invision Power Services