Printable Version of Topic

Click here to view this topic in its original format

Metal Area - Extreme Music Portal _ Archive _ Pathogen - Ashes Of Eternity (2017)

Posted by: Samaritianin Apr 13 2018, 20:26:28

http://metalarea.org/images/audiocovers/2018_Apr/acov_tid304628.jpg

*Artist: http://metalarea.org/forum/index.php?showtopic=214700
*Album: Ashes Of Eternity
*Year: 2017
*Genre: Old School Death Metal
*Country: Philippines
*Format: mp3@VBR243kbps
*Size: 80MB

Tracklist:
1. Cinis Aeturnus (Intro) 01:28 instrumental
2. Apocryphal Visions 04:54
3. Burning in Abysmal Ruins 05:18
4. Deathvomit 04:07
5. A Graven Frost 07:44
6. Into the Endless Grey 06:09
7. Genetic Threat 04:55
8. Necrolatric Sorcery 04:16
9. Crematorial Destiny 06:54
******************************
Total playing time: 45:45

https://oldtemple.bandcamp.com/album/pathogen-ashes-of-eternity
https://www.facebook.com/Pathogen-PH-177645992334222/

Extended info
Scene CD-Rip
Willie Desamero Vocals, Guitars
Vic Jarlego Drums
Nino Jerome Aranza Bass
Jervish Alcos Guitars


Technical info

Input File: 04-pathogen-deathvomit.mp3
Channels : 2
Sample Rate : 44100
Precision : 16-bit
Duration : 00:04:07.64 = 10920924 samples = 18573 CDDA sectors
File Size : 7.89M
Bit Rate : 255k
Sample Encoding: MPEG audio (layer I, II or III)
Comments :
Title=Deathvomit
Artist=Pathogen
Album=Ashes of Eternity
Tracknumber=4/9
Year=2017-00-00
Genre=Death Metal



[ Hidden Text ]

Posted by: andreikun Apr 14 2018, 21:58:07

Отличная группа, все альбомы.

Posted by: deatholocaust Jun 12 2019, 16:25:58

lossless please

Posted by: frostdomain Jun 22 2019, 20:29:59

320
[ Hidden Text ]

Powered by Invision Power Board
© Invision Power Services