Printable Version of Topic

Click here to view this topic in its original format

Metal Area - Extreme Music Portal _ Archive _ Gaupa - Gaupa [ep] (2018)

Posted by: vosmidesijatye Jun 5 2018, 15:32:55

http://metalarea.org/images/audiocovers/2018_Jun/acov_tid306800.jpg

*Artist: Gaupa
*Album: Gaupa [ep]
*Year: 2018
*Genre: Heavy/Stoner/Doom Metal
*Country: Sweden
*Format: mp3@CBR320kbps
*Size: 64MB

Tracklist:
01. Febersvan 07:27
02. The Drunk Autopussy Wants To Fight You 03:04
03. Kartan 05:54
04. Gryt 04:08
05. Bergatroll 07:29
******************************
Total playing time: 28:02

http://gaupaband.com/

Technical info

Input File: 01 Febersvan.mp3
Channels : 2
Sample Rate : 44100
Precision : 16-bit
Duration : 00:07:27.81 = 19748245 samples = 33585.5 CDDA sectors
File Size : 18.2M
Bit Rate : 326k
Sample Encoding: MPEG audio (layer I, II or III)
Comments :
Title=Febersvan
Artist=Gaupa
Album=GAUPA
Tracknumber=1
Year=2018
Genre= Rock



[ Hidden Text ]

Posted by: vosmidesijatye Jun 5 2018, 16:25:18

@320

[ Hidden Text ]

Posted by: Zhelezjaka Oct 16 2020, 19:05:29

Re-up. dooo.gif

Posted by: Borderline1991 Oct 18 2020, 09:59:20

[ Hidden Text ]

Powered by Invision Power Board
© Invision Power Services