Printable Version of Topic

Click here to view this topic in its original format

Metal Area - Extreme Music Portal _ Archive _ Carthage - Punic War! (2018)

Posted by: aesteticvice Oct 5 2018, 20:32:03

https://metalarea.org/images/audiocovers/2018_Oct/acov_tid311431.jpg

*Artist: Carthage
*Album: Punic War!
*Year: 2018
*Genre: Brutal Death Metal
*Country: Greece
*Format: mp3@CBR320kbps
*Size: 74MB

Tracklist:
01. Dido's Land 02:08
02. The Fields Of Zama 03:14
03. Death In Trebia 01:57
04. Siege Of Saguntum 02:25
05. Crossing The Alps 04:05
06. On The Lake Of Trasimine 03:19
07. The Battlefield Of Cannae 02:26
08. Hasdrubal 03:20
09. An Attrition Warfare 02:28
10. Carthago Delenta Est 04:01
******************************
Total playing time: 29:23

https://amputatedveinrecords.bandcamp.com/album/panic-war
https://www.facebook.com/Carthagebandgr/

Extended info
‘Punic Wars’, is not only a title of Carthage’s debut album, but a precise description of it. Raw, brutal, death metal, without any clean vocals, this album delivers brutal death metal in its purest form. It is consisted by 10 massive songs. Each one of them has its own identity, but at the same time, as a combination, it creates an intense and collective brutality. 30 minutes of extreme brutal death metal, covers all the needs of someone who desires to hear, one of the most brutal releases of this year. The music is extremely fast, and is being presented through a heavy production of clarity.



Technical info

Input File: 03. Death In Trebia.mp3
Channels : 2
Sample Rate : 44100
Precision : 16-bit
Duration : 00:01:57.35 = 5175179 samples = 8801.32 CDDA sectors
File Size : 5.48M
Bit Rate : 373k
Sample Encoding: MPEG audio (layer I, II or III)
Comments :
Title=Death In Trebia
Artist=Carthage
Album=Punic War!
Tracknumber=3/10
Year=2018
Discnumber=1/1



[ Hidden Text ]

Posted by: aesteticvice Oct 6 2018, 06:53:44

MIRROR
[ Hidden Text ]

Posted by: sperminator Oct 8 2018, 00:54:45

хорошо! а, уж для (по сути) one-man проекта - да, их тут двое, но один отвечает за все инструменты, второй на вокале - дюже бодро! не шустрят, но и не спят. всё в меру.

Posted by: Genuine Thrashiac Oct 8 2018, 01:49:49

sperminator, "не шустрят" ... да вы, батенька, шутник crazy.gif

Послушал чисто ради развлечения и из-за того, что тематика у них не кровищща и расчленёнка ради зрелища;
а типа, историческая (хотя тоже, по сути, насилие).

Posted by: judaz Oct 8 2018, 06:15:40

Для полной аутентичности группа должна быть из Туниса. headcrab.png

Posted by: judaz Oct 8 2018, 10:12:14

Послушал, альбом - ураган

Posted by: Leshiy666 Oct 10 2018, 04:04:23

Добротная работа. Весьма неплохой такой бодрый брутал, без тупорылого слэма дж-дж-дж и деткора и прочей модернятины.
P.S. Единственный минус как по мне так это пластиковые сэмпловые драмсы, могли бу нарулить и живые ну или хотя бы сэмплы получше подобрать, есть же в разы лучше сэмплы которые и лучше в целом как бы звучат и не так сразу в уши бросаются и меньше паляться что не живые.

Posted by: Hell_Is_Here Oct 30 2018, 06:53:41

ЦИТАТА(Leshiy666 @ Oct 10 2018, 08:04:23) *
Единственный минус как по мне так это пластиковые сэмпловые драмсы, могли бу нарулить и живые ну или хотя бы сэмплы получше подобрать, есть же в разы лучше сэмплы которые и лучше в целом как бы звучат и не так сразу в уши бросаются и меньше паляться что не живые.

В Cakewalk by BandLab есть плагин Cakewalk Sound Center. Там, в акустических установках есть одна, для такого плана музыки, с "кастрюльками". 1488.gif Если грамотно забить - от живых хер отличишь. genius.gif PS Соррян, конкретно с этими ударными не нашёл, а самому записывать видео как-то лень. 21.gif

Posted by: Язва Nov 5 2018, 23:34:44

ЦИТАТА(Leshiy666 @ Oct 10 2018, 06:04:23) *
Добротная работа. Весьма неплохой такой бодрый брутал, без тупорылого слэма дж-дж-дж и деткора и прочей модернятины.

+1
8/10

Posted by: StabWound Jan 14 2021, 00:58:00

Awesome, really brutal shit. love it.

Posted by: Cooperalex Jan 14 2021, 09:05:26

Альбом хороший. Но это не Брутал, а умеренно техничный дэт.
Название группы и альбома обязывает вещать о фактах истории древних цивилизаций. Возможно,если продолжат в том же духе, в будущем составят конкуренцию итальянцам Ade.

Powered by Invision Power Board
© Invision Power Services