Printable Version of Topic

Click here to view this topic in its original format

Metal Area - Extreme Music Portal _ Archive _ Obscurity Tears - Rise Of A God (2018)

Posted by: Samaritianin Dec 21 2018, 20:35:18

https://metalarea.org/images/audiocovers/2018_Dec/acov_tid314655.jpg

*Artist: Obscurity Tears
*Album: Rise Of A God
*Year: 2018
*Genre: Doom Metal
*Country: Brazil
*Format: mp3@CBR320kbps
*Size: 105MB

Tracklist:
01. Rise of a God, Pt. 1
02. The Seeder
03. Progenysense
04. Rise of a God, Pt. 2
05. Interstellar
06. Lost in the Deep
07. Rise of a God, Pt. 3
08. The Deep and Red Sea
09. Dark Fairy
******************************
Total playing time: 49:11

https://www.facebook.com/obscuritytears/

Extended info
Flávio Marcelo Bass, Vocals
Denes Drums
Evandro Andrade Guitars
José Alves Guitars (Keyboards early)
Márcia Raquel Vocals
See also: Empty Book


Technical info

Input File: 03. Progenysense.mp3
Channels : 2
Sample Rate : 44100
Precision : 16-bit
Duration : 00:07:58.41 = 21097881 samples = 35880.8 CDDA sectors
File Size : 19.2M
Bit Rate : 321k
Sample Encoding: MPEG audio (layer I, II or III)
Comments :
Title=Progenysense
Artist=Obscurity Tears
Album=Rise Of A God
Tracknumber=3
Year=2018
Discnumber=1



[ Hidden Text ]

Posted by: Samaritianin Dec 21 2018, 21:39:25

Cloud Mail 320
[ Hidden Text ]

Posted by: djsema4 Dec 24 2018, 11:00:26

https://www.youtube.com/watch?v=sCzv5HpZmbg

Posted by: Hellraizer Dec 26 2018, 20:12:13

Дум дэт, тащемта. Очень похоже на ранний Mythological cold towers: унылейший гроул, относительно много клавишных и потрясные гитарки, иногда даже отдающие кататонией.

Дослушал: хороший альбом. Несмотря на современность и ужасный вокал, чувствуется заботливо воссозданный дух олдскула. Куча цепляющих мелодий и почти полное отсутствие музыкального балласта, звучат довольно бодро. Скучающим по душевному стаффу в духе Ignis Creatio от Pyogenesis и вышеупомянутых товарищей следует обратить самое пристальное внимание.

Posted by: Whitefish Apr 8 2019, 07:30:51

https://obscuritytears.bandcamp.com/releases

Posted by: Hughes Jul 7 2019, 02:13:34

Неплохой думец, под пиво покатитsmile1.gif

Powered by Invision Power Board
© Invision Power Services