Printable Version of Topic

Click here to view this topic in its original format

Metal Area - Extreme Music Portal _ Archive _ Headless Hate - Hail The Hates!! [ep] (2018)

Posted by: Samaritianin Jan 16 2019, 00:15:10

https://metalarea.org/images/audiocovers/2019_Jan/acov_tid315983.jpg

*Artist: Headless Hate
*Album: Hail The Hates!! [ep]
*Year: 2018
*Genre: Thrash/Death Metal
*Country: Mexico
*Format: mp3@CBR320kbps
*Size: 81MB

Tracklist:
1. Headless Hate 06:16
2. Destroy the Zone 05:16
3. Raising Dead 05:50
4. Death to All 04:00
5. The War Is Done 05:45
6. Army of Hate 08:09
******************************
Total playing time: 35:16

https://www.facebook.com/headlesshate/

Extended info
Kike (The Dicktator) Bass
Charly Grind Drums
Josh (Kruzpe) Guitar
Dany (The Kreator) Guitar
Edu (Corpse Joker) Vocal



Technical info

Input File: 03 - Raising Dead.mp3
Channels : 2
Sample Rate : 44100
Precision : 16-bit
Duration : 00:05:50.09 = 15438793 samples = 26256.5 CDDA sectors
File Size : 14.1M
Bit Rate : 323k
Sample Encoding: MPEG audio (layer I, II or III)
Comments :
Title=Raising Dead
Artist=Headless Hate
Album=Hail the Hates!!
Tracknumber=3
Year=2018



[ Hidden Text ]

Powered by Invision Power Board
© Invision Power Services