Printable Version of Topic

Click here to view this topic in its original format

Metal Area - Extreme Music Portal _ Archive _ Dogtor - Attack On All Fronts! The Best Of Dogtor (2019)

Posted by: necroscum Mar 15 2019, 03:54:25

http://metalarea.org/images/audiocovers/2019_Mar/acov_tid319059.jpg

*Artist: Dogtor
*Album: Attack On All Fronts! The Best Of Dogtor
*Year: 2019
*Genre: Thrash Metal
*Country: Finland
*Format: mp3@CBR320kbps
*Size: 88MB

Tracklist:
01. Air Raid
02. Motor Metal Mayhem
03. Turbocharger
04. Hellhound
05. Snake in a Suit
06. Horseman
07. The Knife
08. Can't Fool Me
09. Bad Move
10. C'mon Go Go!
11. Camaro
12. Ride Forever (Ride for Life)
******************************
Total playing time: 37:02

Technical info

Input File: 02. Motor Metal Mayhem.mp3
Channels : 2
Sample Rate : 44100
Precision : 16-bit
Duration : 00:02:45.60 = 7303048 samples = 12420.1 CDDA sectors
File Size : 6.90M
Bit Rate : 333k
Sample Encoding: MPEG audio (layer I, II or III)
Comments :
Title=Motor Metal Mayhem
Artist=Dogtor
Album=Attack on All Fronts! the Best of Dogtor
Tracknumber=2/12
Year=2019



[ Hidden Text ]

Posted by: AHBAnep Mar 15 2019, 11:42:30

Dogtor
Helsinki, Finland

https://www.facebook.com/dogtorband/
Shellshokk (2016): https://soundcloud.com/dogtor
Motor Metal Mayhem (2013): https://www.youtube.com/watch?v=LRYqBw9Zf6A&list=PLwGOvm0SS6QV3V70H4-GPwlvb0uxvmxXb
Dogtor's Order (2012): https://www.youtube.com/watch?v=GHuBJuqFw0A&list=PLwGOvm0SS6QWyT7aTOktW6BAA237oM-DG
EP Fire At Will (2010): https://www.youtube.com/watch?v=7MsFmzF2tAA&list=PLwGOvm0SS6QUTbAjKw3wByVPhb3HbLbRF
Никаким трэшем тут не пахнет.

Posted by: metala Mar 15 2019, 13:53:30

Motorhead-influenced stuff; pleasant feelgood power/speed metal with not much thrash present

Posted by: Andrew Mar 16 2019, 21:18:59

ЦИТАТА(metala @ Mar 15 2019, 16:53:30) *
with not much thrash present

dooo.gif Как то без треша здесь!

Powered by Invision Power Board
© Invision Power Services