Printable Version of Topic

Click here to view this topic in its original format

Metal Area - Extreme Music Portal _ Archive _ Dream Void - Divinization (2019)

Posted by: TDM Jul 4 2019, 08:39:38

http://metalarea.org/images/audiocovers/2019_Jul/acov_tid323904.jpg

*Artist: Dream Void
*Album: Divinization
*Year: 2019
*Genre: Technical Death Metal/Deathcore
*Country: United States
*Format: mp3@CBR320kbps
*Size: 51MB

Tracklist:
1. Believing the Lie 4:13
2. The Charlatan's Lantern 5:40
3. Immuration 3:17
4. The Curtain Drawn 4:29
5. Permeation 3:55
******************************
Total playing time: 21:34

https://dreamvoidband.bandcamp.com/

Extended info
Средней руки ТДМ
Кора особого не завезли


Technical info

Input File: 04 - The Curtain Drawn.mp3
Channels : 2
Sample Rate : 44100
Precision : 16-bit
Duration : 00:04:28.84 = 11856020 samples = 20163.3 CDDA sectors
File Size : 11.1M
Bit Rate : 330k
Sample Encoding: MPEG audio (layer I, II or III)
Comments :
Title=The Curtain Drawn
Artist=Dream Void
Album=Divinization
Tracknumber=4
Year=2019
Genre=Technical Death Metal/Deathcore



[ Hidden Text ]

Posted by: Metalass Jan 14 2020, 19:08:32

Приз за лучшую имитацию Fallujah достается группе Dream Void за их песню Permeation.
В остальном хороший слушабельный тех дэт(кор), но ультра короткий.

Powered by Invision Power Board
© Invision Power Services