Printable Version of Topic

Click here to view this topic in its original format

Metal Area - Extreme Music Portal _ Archive _ Rotting Christ & Varathron - Duality Of The Unholy Existence [split] (2019)

Posted by: Panacea Jul 10 2019, 19:08:53

http://metalarea.org/images/audiocovers/2019_Jul/acov_tid324172.jpg

*Artist: http://metalarea.org/forum/index.php?showtopic=1409 & http://metalarea.org/forum/index.php?showtopic=38354
*Album: Duality Of The Unholy Existence [split]
*Year: 2019
*Genre: Melodic Black Metal | Black Metal
*Country: Greece | Greece
*Format: mp3@CBR320kbps
*Size: 22MB

Tracklist:
Rotting Christ:
1. Spiritus Sancti 04:50
Varathron:
2. Shaytan 04:36
******************************
Total playing time: 9:26

https://hellsheadbangers.bandcamp.com/album/duality-of-the-unholy-existence-2

Extended info
222 copies pressed on gold vinyl and 777 copies on black vinyl.
Hells Headbangers Records.


Technical info

Input File: 02 - Varathron - Shaytan.mp3
Channels : 2
Sample Rate : 44100
Precision : 16-bit
Duration : 00:04:36.08 = 12175128 samples = 20706 CDDA sectors
File Size : 11.2M
Bit Rate : 323k
Sample Encoding: MPEG audio (layer I, II or III)
Comments :
Title=Shaytan
Artist=Varathron
Album=Duality Of The Unholy Existence
Tracknumber=2
Year=2019
Genre=Black Metal



[ Hidden Text ]

Posted by: neoatheist Jul 11 2019, 09:18:27

Офигенная вещица от Гниющего, да и Varathron не отстали! 20.gif

Posted by: Sangreal Jul 11 2019, 14:06:51

Очередной, уже давно набивший оскомину, пресный самоповтор от RC.
И приятная песня от V в классическом греческом стиле 90-х.

Зачем?

Posted by: nagval Jul 11 2019, 15:25:11

Не удачный

Posted by: RUSP73 Jul 11 2019, 16:58:19

Шляпа

Posted by: vosmidesijatye Jul 11 2019, 17:01:05

ЦИТАТА(RUSP73 @ Jul 11 2019, 19:58:19) *
Шляпа


Хорошая (американская) стоит приличных денег, не обижайте сей аксессуар. 25.gif

Сплит удался, ребята тарахтят на отлично, каждый в своем стиле.

Posted by: RUSP73 Jul 11 2019, 17:11:18

ЦИТАТА(vosmidesijatye @ Jul 11 2019, 19:01:05) *
Хорошая (американская) стоит приличных денег, не обижайте сей аксессуар. 25.gif

Сплит удался, ребята тарахтят на отлично, каждый в своем стиле.

Кому как
Роттинги давно не торкают. Тока 93 и 94, а Varathron чет очень мелодичен - надо послухать их крайний альбум)

Posted by: Dmitry1977 Jul 17 2019, 06:06:45

Насколько прекрасен Varathron, настолько убог Rotting Christ. Что, в общем-то, было слегка предсказуемо.

Posted by: Wizard_in_Black Jul 22 2019, 09:38:09

ЦИТАТА(Dmitry1977 @ Jul 17 2019, 06:06:45) *
Насколько прекрасен Varathron, настолько убог Rotting Christ. Что, в общем-то, было слегка предсказуемо.


Трудно не согласится. Varathron на долго остается в памяти с этой песней. Роттинги здесь прозвучали невзрачно и бесхребетно. Это печально потому что от Гниющего все таки ожидаешь услышать нечто более вразумительное. Rotting christ яркий пример когда нужно взять творческую паузу и переосмыслить свою деятельность, ибо количество с постоянством пошли во вред качеству.

p.s. Винил все равно заказал ибо Varathron pray.gif pray.gif pray.gif

Powered by Invision Power Board
© Invision Power Services