Printable Version of Topic

Click here to view this topic in its original format

Metal Area - Extreme Music Portal _ Archive _ Necromonarchia Daemonum - Funeralis De Malefica [demo] (2018)

Posted by: Абигор Jul 17 2019, 21:33:55

http://metalarea.org/images/audiocovers/2019_Jul/acov_tid324571.jpg

*Artist: http://metalarea.org/forum/index.php?showtopic=324572
*Album: Funeralis De Malefica [demo]
*Year: 2018
*Genre: Black/Doom Metal
*Country: Finland
*Format: mp3@CBR320kbps
*Size: 36MB

Tracklist:
1. Livid Presence Of A Voice Of Hell 02:10
2. Necroerotica The Witches Shrine 03:27
3. Media Nox Funeralis 00:59
4. Bloodlust & Witchcraft 03:40
5. Moonglow Gothician 05:30
******************************
Total playing time: 15:46

https://www.youtube.com/watch?v=rGemC_FJOy4

Technical info

Input File: Necromonarchia Daemonum - 04 - Bloodlust & Witchcraft.mp3
Channels : 2
Sample Rate : 44100
Precision : 16-bit
Duration : 00:03:40.43 = 9721095 samples = 16532.5 CDDA sectors
File Size : 8.82M
Bit Rate : 320k
Sample Encoding: MPEG audio (layer I, II or III)
Comments :
Title=Bloodlust & Witchcraft
Artist=Necromonarchia Daemonum
Album=Funeralis De Malefica
Tracknumber=04/05
Year=2018
Genre=Black Metal



[ Hidden Text ]

Powered by Invision Power Board
© Invision Power Services