Printable Version of Topic

Click here to view this topic in its original format

Metal Area - Extreme Music Portal _ Archive _ Black Candle Wax - Ii [demo] (2019)

Posted by: lestllk Jul 22 2019, 01:57:32

https://metalarea.org/images/audiocovers/2019_Jul/acov_tid324770.jpg

*Artist: Black Candle Wax
*Album: Ii [demo]
*Year: 2019
*Genre: Raw Black Metal
*Country: United States
*Format: mp3@CBR320kbps
*Size: 32MB

Tracklist:
1. From Beyond
2. Disturbing the Ancient
3. Poor Souls
4. Cyclical Despair
5. Body Eater
******************************
Total playing time: 13:01

Extended info
Tape-rip by toooooomb


Technical info

Input File: 02. Disturbing the Ancient.mp3
Channels : 2
Sample Rate : 48000
Precision : 16-bit
Duration : 00:02:09.22 = 6202368 samples ~ 9691.2 CDDA sectors
File Size : 5.17M
Bit Rate : 320k
Sample Encoding: MPEG audio (layer I, II or III)
Comments :
Title=Disturbing the Ancient
Artist=Black Candle Wax
Album=II
Tracknumber=2/5
Year=2019
Genre=Black Metal



[ Hidden Text ]

Powered by Invision Power Board
© Invision Power Services