Printable Version of Topic

Click here to view this topic in its original format

Metal Area - Extreme Music Portal _ Archive _ Draugr - Hymns Of Temptation (2019)

Posted by: Samaritianin Jul 27 2019, 19:57:02

https://metalarea.org/images/audiocovers/2019_Jul/acov_tid325010.jpg

*Artist: Draugr
*Album: Hymns Of Temptation
*Year: 2019
*Genre: Melodic Death Metal
*Country: United Kingdom
*Format: mp3@CBR320kbps
*Size: 94MB

Tracklist:
01. Nothing (Left for Me)
02. Path to the Sky
03. Towards the End
04. Kingdom of the Shades
05. Kuolemanpyörä
06. Hymn of Temptation
07. Perish Song
08. Wither Away
******************************
Total playing time: 37:06

https://www.facebook.com/DraugrBand
https://draugruk.bandcamp.com/album/hymns-of-temptation

Extended info
James Kelly Drums, Vocals (backing) (2013-present)
See also: Cerberus Unchained
Shea "Janne" Mackay Vocals, Guitars (2013-present)
Dan Tuck Bass (2016-present)
Chay "Ahti" Johnson Guitars (2016-present)
Ellen Meadows Keyboards (2016-present)


Technical info

Input File: 03 Towards the End.mp3
Channels : 2
Sample Rate : 44100
Precision : 16-bit
Duration : 00:05:34.83 = 14765959 samples = 25112.2 CDDA sectors
File Size : 13.7M
Bit Rate : 327k
Sample Encoding: MPEG audio (layer I, II or III)
Comments :
Title=Towards The End
Artist=Draugr
Album=Hymns Of Temptation
Tracknumber=03
Year=2019



[ Hidden Text ]

Posted by: yorsh Jul 27 2019, 22:42:55

Influenced by bands such as Kalmah, Wintersun, Children of Bodom and In Flames.

Posted by: Dreamtale Jul 28 2019, 04:03:30

Пионерский третьесорт.

Posted by: DenisKov Aug 6 2019, 13:04:19

Похоже на демку из середины 90х.

Powered by Invision Power Board
© Invision Power Services