Printable Version of Topic

Click here to view this topic in its original format

Metal Area - Extreme Music Portal _ Archive _ Dayum - Ghost Of Sparta (2019)

Posted by: rewa Aug 4 2019, 10:50:15

http://metalarea.org/images/audiocovers/2019_Aug/acov_tid325307.jpg

*Artist: Dayum
*Album: Ghost Of Sparta
*Year: 2019
*Genre: Deathcore/Technical Death Metal
*Country: Austria
*Format: mp3@CBR320kbps
*Size: 98MB

Tracklist:
1. Introduction 02:59
2. Ghost of Sparta 04:23
3. Pegasus 04:04
4. Downfall of Gaia 01:07
5. Icarus 05:42
6. Challenge of Poseidon 04:08
7. Desert of Lost Souls 05:08
8. Hermes 04:38
9. Prometheus 06:34
10. Challenge of Poseidon 8bit 03:34
******************************
Total playing time: 42:17

https://dayumband.bandcamp.com/album/ghost-of-sparta

Technical info

Input File: 1 - Introduction.mp3
Channels : 2
Sample Rate : 44100
Precision : 16-bit
Duration : 00:02:59.26 = 7905454 samples = 13444.6 CDDA sectors
File Size : 7.31M
Bit Rate : 326k
Sample Encoding: MPEG audio (layer I, II or III)
Comments :
Title=Introduction
Artist=DAYUM
Album=Ghost of Sparta
Tracknumber=1
Year=2019
Genre=Alternative
Discnumber=1



[ Hidden Text ]

Posted by: Луч Aug 4 2019, 13:00:35

Ярость и мощь. Мне понравилось.

Posted by: Andrew Aug 4 2019, 13:25:26

Абсолютно не мое, но мне также очень пришелся по душе альбом.
Толково, быстро, четко и мощно сыграно!

Posted by: vosmidesijatye Aug 4 2019, 13:52:04

Дэткор это музыка для подростков пытающихся казаться брутальными. Это не метал.

Posted by: BapeHuk Aug 5 2019, 12:02:36

Мне эти понравились. ЖЫЫЫРР!!!

Posted by: Andrew Aug 5 2019, 12:27:01

Ну так материал то сделан со знаком качества!
Лично я - ни дезкор, ни техникал не катирую вообще. А материал понравился.
Потому как сделан добротно

Posted by: Nemez Aug 5 2019, 12:39:33

ЦИТАТА(vosmidesijatye @ Aug 4 2019, 15:52:04) *
Дэткор это музыка для подростков пытающихся казаться брутальными. Это не метал.


но "фраза Метал\рок это музыка для подростков пытающихся казаться брутальными." также работает

Posted by: Nemez Aug 5 2019, 12:47:58

ЦИТАТА(adeptus_custodes @ Aug 5 2019, 14:44:50) *
Во, ты начинаешь прозревать друг.


так я вот толкую для таких, как вы и восьмидесятый, которые считают, что одно стоит выше другого.

Posted by: BapeHuk Aug 5 2019, 13:10:33

ЦИТАТА
Где в этой пластиковой каше жирок-то


ну вполне себе музыкально-мелодично и главное технично.

Posted by: Metalass Aug 15 2019, 13:32:08

Не смог пройти мимо тэппинга в духе Rings Of Saturn. Хорошая штука, послушать на пару раз. Ничего выдающегося, безусловно.

Posted by: Victim of fate Oct 2 2019, 19:09:26

просто АТАСС!!!!

Posted by: mittal Oct 2 2019, 21:00:16

ЦИТАТА(vosmidesijatye @ 4th August 2019 - 15:52:04) *
Дэткор это музыка для подростков пытающихся казаться брутальными. Это не метал.

Сказал человек, которого повергает в шок и ужас мало-мальски брутальный дэт 1488.gif

Posted by: vosmidesijatye Oct 2 2019, 21:06:47

ЦИТАТА(mittal @ Oct 3 2019, 00:00:16) *
которого повергает в шок и ужас мало-мальски брутальный дэт 1488.gif


Он меня скорее смешит. Чето буробящие в микрофон взрослые лбы под грохот и ор долбилова - ну это же весело.

Posted by: mittal Oct 2 2019, 21:08:57

ЦИТАТА(vosmidesijatye @ 2nd October 2019 - 23:06:47) *
Он меня скорее смешит. Чето буробящие в микрофон взрослые лбы под грохот и ор долбилова - ну это же весело.

А тяжесть как таковая тебе не приносит удовольствия? Сочувствую.

Posted by: vosmidesijatye Oct 2 2019, 21:13:59

ЦИТАТА(mittal @ Oct 3 2019, 00:08:57) *
А тяжесть как таковая тебе не приносит удовольствия? Сочувствую.


В брутале нет той нужной мне тяжести которая наполняет радостью.

Мне хватает тяжести стоунера и сладжа тех же, там по крайней мере читаемо все и более музыкально чем хаотичное долбилово и надсадное орево всяких брутальщиков.

Posted by: mittal Oct 2 2019, 21:23:22

ЦИТАТА(vosmidesijatye @ 2nd October 2019 - 23:13:59) *
хаотичное долбилово

Это всегда интересно. Даже не имея целостной картинки мелодии, само звучание очень доставляет.
Тупое же долбилово иногда тоже очень доставляет - с сырым звуком (когда проникаешься самим духом первобытного дикого брутала) или же жирным месивом на большой громкости - кайф же.
Но музыкальность тоже уважаю - вплоть до минимализма.

Powered by Invision Power Board
© Invision Power Services