Printable Version of Topic

Click here to view this topic in its original format

Metal Area - Extreme Music Portal _ Archive _ Evil Invaders - Surge Of Insanity: Live In Antwerp 2018 [live] (2019)

Posted by: Necrokilldozer Oct 4 2019, 14:41:31

http://metalarea.org/images/audiocovers/2019_Oct/acov_tid328355.jpg

*Artist: Evil Invaders
*Album: Surge Of Insanity: Live In Antwerp 2018 [live]
*Year: 2019
*Genre: Speed Metal
*Country: Belgium
*Format: mp3@CBR320kbps
*Size: 189MB

Tracklist:
1.Intro
2.As Life Slowly Fades
3.Pulses of Pleasure
4.Shot to Paradise
5.Mental Penitentiary
6.Broken Dreams in Isolation
7.Feed Me Violence
8.Stairway to Insanity
9.Among the Depths of Sanity
10.Oblivion
11.Master of Illusion
12.Witching Hour
13.Fast, Loud 'N' Rude
14.Raising Hell
15.Victim of Sacrifice
16.Outro: Shades of Solitude
******************************
Total playing time: 1:19:47

https://evilinvaders.bandcamp.com/album/surge-of-insanity-live-in-antwerp-2018

Extended info
Line - up:

Joe - Vocals (lead), Guitars
Senne Jacobs - Drums
Max - Guitars (lead) (Constant Vulse, ex-Death Assault, ex-Voltrage)
Joeri - Bass (ex-Prematory, Brides of Lucifer, ex-Carnation (live))



Technical info

Input File: 04 Shot to Paradise.mp3
Channels : 2
Sample Rate : 44100
Precision : 16-bit
Duration : 00:04:11.32 = 11082992 samples = 18848.6 CDDA sectors
File Size : 10.1M
Bit Rate : 320k
Sample Encoding: MPEG audio (layer I, II or III)
Comments :
Title=Shot to Paradise
Artist=Evil Invaders
Album=Surge of Insanity: Live in Antwerp 2018 (Live)
Tracknumber=4
Year=2019
Genre=Speed Metal



[ Hidden Text ]

Powered by Invision Power Board
© Invision Power Services