Printable Version of Topic

Click here to view this topic in its original format

Metal Area - Extreme Music Portal _ Archive _ Screamer - Highway Of Heroes (2019)

Posted by: Andrew Oct 11 2019, 17:24:10

http://metalarea.org/images/audiocovers/2019_Oct/acov_tid328680.jpg

*Artist: Screamer
*Album: Highway Of Heroes
*Year: 2019
*Genre: Heavy Metal
*Country: Sweden
*Format: mp3@CBR320kbps
*Size: 81MB

Tracklist:
1. Intro 01:11
2. Ride On 03:26
3. Shadow Hunter 03:07
4. Rider of Death 03:41
5. Sacrifice 04:40
6. Halo 04:17
7. Highway of Heroes 03:43
8. Out of the Dark 03:22
9. Towers of Babylon 02:55
10. Caught in Lies 05:01
******************************
Total playing time: 35:23

https://wearescreamer.bandcamp.com/album/highway-of-heroes
https://www.facebook.com/wearescreamer/
https://www.youtube.com/watch?v=rKv8O3UFNPU
https://www.youtube.com/watch?v=86i3zCxXMgI
https://www.youtube.com/watch?v=DOiyFm4MExA

Technical info

Input File: 2 - Shadow Hunter.mp3
Channels : 2
Sample Rate : 44100
Precision : 16-bit
Duration : 00:03:06.92 = 8242996 samples = 14018.7 CDDA sectors
File Size : 7.56M
Bit Rate : 323k
Sample Encoding: MPEG audio (layer I, II or III)
Comments :
Title=Shadow Hunter
Artist=Screamer
Album=Highway of Heroes
Tracknumber=2
Year=2019
Genre=Rock/Hard Rock/Metal
Discnumber=1



[ Hidden Text ]

Posted by: Deadly1989 Oct 18 2019, 12:40:13

Б-ть, дак тут тоже без интро. Помню, что самаритяниновский архив качал - его, одно что, в файнд отправили. Здесь тот же самый рип, получается.

С релизом, кстати, стоит ознакомиться любителям олдскула.

Powered by Invision Power Board
© Invision Power Services