Printable Version of Topic

Click here to view this topic in its original format

Metal Area - Extreme Music Portal _ Archive _ Daemoniac - Regents Of Chaos (2019)

Posted by: Samaritianin Oct 11 2019, 17:32:26

http://metalarea.org/images/audiocovers/2019_Oct/acov_tid328681.jpg

*Artist: Daemoniac
*Album: Regents Of Chaos
*Year: 2019
*Genre: Black Metal
*Country: Colombia
*Format: mp3@CBR320kbps
*Size: 99MB

Tracklist:
01. Under The Shadow Of Rigel 02:20
02. Regents Of Chaos 06:49
03. Ancient Legions 06:28
04. A Dead World In The Time 05:41
05. Funeral Of The Dark Conquerors 04:54
06. Bastard´s Of Creation 05:44
07. Returns Of Rigelians 05:26
08. Laments Of Death 05:38
******************************
Total playing time: 43:00

https://www.facebook.com/DAEMONIACMEDELLIN/

Extended info
Demgel (Lead guitar and Lead voice)
Monarca (Drums)
Adramelech (Guitar and voice)
Mortum ( Bass and voice )



Technical info

Input File: 03 - Ancient Legions.mp3
Channels : 2
Sample Rate : 44100
Precision : 16-bit
Duration : 00:06:28.46 = 17131174 samples = 29134.6 CDDA sectors
File Size : 15.6M
Bit Rate : 322k
Sample Encoding: MPEG audio (layer I, II or III)
Comments :
Title=Ancient Legions
Artist=Daemoniac
Album=Regents Of Chaos
Tracknumber=3
Year=2019-10-11
Discnumber=1



[ Hidden Text ]

Posted by: Samaritianin Oct 12 2019, 16:22:13

Cloud Mail 320
[ Hidden Text ]

Powered by Invision Power Board
© Invision Power Services