Printable Version of Topic

Click here to view this topic in its original format

Metal Area - Extreme Music Portal _ Archive _ Nmlss_Vgr - 011000110110111101110011011011010110111101110011 [demo] (2019)

Posted by: sundowning Nov 8 2019, 14:14:20

http://metalarea.org/images/audiocovers/2019_Nov/acov_tid330035.jpg

*Artist: Nmlss_Vgr
*Album: 011000110110111101110011011011010110111101110011 [demo]
*Year: 2019
*Genre: Atmospheric/Ambient Black Metal
*Country: Germany
*Format: mp3@CBR320kbps
*Size: 90MB

Tracklist:
01. Death is Happiness 07:12
02. I Think Cosmos Is Not For You, Lazy Human 08:18
03. Gagarin, Sorry, We Totally Fucked Up 05:28
04. So Long 2 Minutes 56 Seconds, So Short My Life To See Russians On Moon 02:56
05. Through The Great Nothing 15:33
******************************
Total playing time: 39:27

https://nmlssvgr.bandcamp.com/

Extended info
Space black metal from North Rhine-Westphalia, Germany; formed by NONAME_1. The album's title is "cosmos" in binary.


Technical info

Input File: 04. So Long 2 Minutes 56 Seconds, So Short My Life To See Russians On Moon.mp3
Channels : 2
Sample Rate : 44100
Precision : 16-bit
Duration : 00:02:56.73 = 7793837 samples = 13254.8 CDDA sectors
File Size : 7.21M
Bit Rate : 326k
Sample Encoding: MPEG audio (layer I, II or III)
Comments :
Title=So Long 2 Minutes 56 Seconds, So Short My Life To See Russians On Moon
Artist=NMLSS_VGR
Album=011000110110111101110011011011010110111101110011
Tracknumber=04
Year=2019



[ Hidden Text ]

Posted by: vosmidesijatye Nov 8 2019, 14:49:39

ЦИТАТА(sundowning @ Nov 8 2019, 16:14:20) *
03. Gagarin, Sorry, We Totally Fucked Up 05:28


15.gif

Юра, мы все продолбали 1488.gif

Молодцы фрицы 25.gif

Posted by: RUSP73 Nov 8 2019, 15:23:57

На бк внизу еще больше нулей и единиц 1488.gif

Posted by: Hellraiser Nov 8 2019, 16:20:12

ЦИТАТА(Coroner @ 8th November 2019 - 16:17:49) *
Ну, во-первых, не фрицевское это дело, а во-вторых - не знаю, мы, вроде, ничего не профукивали.

Можно вопрос задать? Начиная с какого года ты об этом судишь?

Posted by: Hellraiser Nov 8 2019, 16:27:53

ЦИТАТА(Coroner @ 8th November 2019 - 16:23:55) *
А с какого года автор альбома судит? Или вопрос только ко мне, к нему вопросов нет?

Вопрос был к тебе. Да впрочем это уже и неважно. Поскольку автор альбома здесь совершенно ни при чем. Это еще до него было известно, что мы все просрали, ...даже нам самим.
https://www.google.com/search?source=hp&ei=3ojFXfaBG46vmwXwlLq4Ag&q=%D0%98%D0%B7%D0%B2%D0%B8%D0%BD%D0%B8+%D1%8E%D1%80%D0%B0+%D0%BC%D1%8B+%D0%B2%D1%81%D0%B5+%D0%BF%D1%80%D0%BE%D1%81%D1%80%D0%B0%D0%BB%D0%B8%3F&oq=%D0%98%D0%B7%D0%B2%D0%B8%D0%BD%D0%B8+%D1%8E%D1%80%D0%B0+%D0%BC%D1%8B+%D0%B2%D1%81%D0%B5+%D0%BF%D1%80%D0%BE%D1%81%D1%80%D0%B0%D0%BB%D0%B8%3F&gs_l=psy-ab.3..0i367.1732.13819..14151...0.0..0.83.1705.27....3..0....1..gws-wiz.......0j0i13i30j0i8i13i30j33i21j33i160.TSfnqAM_8dc&ved=0ahUKEwj26NCd9trlAhWO16YKHXCKDicQ4dUDCAY&uact=5
И уж кому, как не Германии нас судить, нами же их победивших. Уж они то уж точно в курсе какие мы были и что с нами сейчас стало.

Posted by: Hellraiser Nov 8 2019, 16:41:29

ЦИТАТА(Coroner @ 8th November 2019 - 16:38:04) *
показывают только то, что их авторы и их поддерживающие, просрали самих себя.

Ты всего лишь сейчас своей фразой привел один мизерный пример из того, что мы прое. С 1969 года и до 1990 почему-то никто не писал подобного. Не знаешь почему? Подумай как следует. И дело совсем не в картинках. Если бы не ленился то почитал бы по ссылкам. Да, да. Там еще ссылки есть. Чуть пониже.

Powered by Invision Power Board
© Invision Power Services