Printable Version of Topic

Click here to view this topic in its original format

Metal Area - Extreme Music Portal _ Archive _ Venus Torment - The Overdose Of Suffering (2016)

Posted by: Samaritianin Jan 15 2020, 19:39:49

http://metalarea.org/images/audiocovers/2020_Jan/acov_tid332674.jpg

*Artist: Venus Torment
*Album: The Overdose Of Suffering
*Year: 2016
*Genre: Death/Thrash Metal
*Country: Chile
*Format: mp3@CBR320kbps
*Size: 92MB

Tracklist:
1. Signal of Death 01:12 instrumental
2. The Overdose of Suffering 03:08
3. Unknown Force 04:23
4. Before Suicide 03:16
5. Ultrasensible Anatomy 02:45
6. Obsessed 02:34
7. Scared Ectoplasm 03:47
8. Astraphobia 03:13
9. The Daywalker 03:54
10. Lunatic Somnophilia 02:33
11. Sex in the Cemetary 04:49
12. The Typewriter of Creation 03:36
******************************
Total playing time: 39:10

https://venustorment.bandcamp.com/album/the-overdose-of-suffering
https://www.facebook.com/venustormentoficial/

Extended info
Venus Torment - Screams, Bass, Guitars
Rotten - Drums


Technical info

Input File: 03 - Unknown Force.mp3
Channels : 2
Sample Rate : 44100
Precision : 16-bit
Duration : 00:04:23.51 = 11620967 samples = 19763.5 CDDA sectors
File Size : 10.7M
Bit Rate : 325k
Sample Encoding: MPEG audio (layer I, II or III)
Comments :
Title=Unknown Force
Artist=Venus Torment
Album=The Overdose of Suffering
Tracknumber=3
Year=2016-04-09
Discnumber=1



[ Hidden Text ]

Powered by Invision Power Board
© Invision Power Services