Printable Version of Topic

Click here to view this topic in its original format

Metal Area - Extreme Music Portal _ Archive _ Burn Damage - Age Of Vultures (2016)

Posted by: Samaritianin Jan 15 2020, 21:47:01

http://metalarea.org/images/audiocovers/2020_Jan/acov_tid332677.jpg

*Artist: Burn Damage
*Album: Age Of Vultures
*Year: 2016
*Genre: Thrash/Death/Groove Metal
*Country: Portugal
*Format: mp3@CBR320kbps
*Size: 74MB

Tracklist:
1. Age of Vultures 05:20
2. My Own Game 02:36
3. Seventh Seal 03:49
4. 4 Little Pigs 03:13
5. Refugee 04:39
6. Slaughterhouse of Cowards 04:32
7. Acid Rain 04:41
8. Beyond Good and Evil 03:16
******************************
Total playing time: 32:06

https://www.facebook.com/BurnDamage
https://ragingplanet.bandcamp.com/album/burn-damage-age-of-vultures

Extended info
Alex Drums (2008-present)
Inês Vocals (2011-present)
Rui Luís Bass (2015-present)
See also: ex-Okkultist (live)
Ivo Durães Guitars (2015-present)
See also: Sinmattic



Technical info

Input File: 05 - Refugee.mp3
Channels : 2
Sample Rate : 44100
Precision : 16-bit
Duration : 00:04:40.36 = 12364052 samples = 21027.3 CDDA sectors
File Size : 11.3M
Bit Rate : 322k
Sample Encoding: MPEG audio (layer I, II or III)
Comments :
Title=Refugee
Artist=Burn Damage
Album=Age of Vultures
Tracknumber=5
Year=2017-01-17
Genre=Metal
Discnumber=1



[ Hidden Text ]

Powered by Invision Power Board
© Invision Power Services