Printable Version of Topic

Click here to view this topic in its original format

Metal Area - Extreme Music Portal _ Archive _ K.F.R - L'enfer À Sa Source (2019)

Posted by: LazarShadow Jan 19 2020, 15:57:52

https://metalarea.org/images/audiocovers/2020_Jan/acov_tid332829.jpg

*Artist: https://metalarea.org/forum/index.php?showtopic=328344
*Album: L'enfer À Sa Source
*Year: 2019
*Genre: Black Metal/Dark Ambient
*Country: France
*Format: mp3@CBR320kbps
*Size: 103MB

Tracklist:
1. L'enfer, c'est toi 07:55
2. Le sinueux chemin 07:38
3. Simulacre de chair 02:42 instrumental
4. Ne cherche pas à devenir, rien a jamais commencé 05:47
5. Anathème de l'envie 09:15
6. L'enfer à sa source 12:32
******************************
Total playing time: 45:49

Technical info

Input File: 3 - Simulacre de Chair.mp3
Channels : 2
Sample Rate : 44100
Precision : 16-bit
Duration : 00:02:42.83 = 7180803 samples = 12212.3 CDDA sectors
File Size : 6.51M
Bit Rate : 320k
Sample Encoding: MPEG audio (layer I, II or III)
Comment : 'Year=2019-02-19'



[ Hidden Text ]

Posted by: vosmidesijatye Jan 19 2020, 22:14:44

Зело хорошечный релиз (как и всегда у Таккарди).

Большое спасибо за релиз.

Posted by: LazarShadow Jan 20 2020, 12:21:26

[ Hidden Text ]

Posted by: vosmidesijatye Jan 22 2020, 11:10:28

Странно шо Леша как ценитель РОУ бм прошел мимо сего примечательного проекта.

Powered by Invision Power Board
© Invision Power Services