Printable Version of Topic

Click here to view this topic in its original format

Metal Area - Extreme Music Portal _ Archive _ Ikarass - Relapse Into Desolation (2020)

Posted by: Samaritianin Mar 21 2020, 09:28:23

http://metalarea.org/images/audiocovers/2020_Mar/acov_tid335150.jpg

*Artist: Ikarass
*Album: Relapse Into Desolation
*Year: 2020
*Genre: Doom/Post-Metal
*Country: Spain
*Format: mp3@CBR320kbps
*Size: 108MB

Tracklist:
1. Guided by Greed 12:49
2. Blood Heaven 08:44
3. Descend 10:43
4. Relapse into Desolation 08:02
5. Deception 06:58
******************************
Total playing time: 47:16

https://ikarass.bandcamp.com/album/relapse-into-desolation
https://www.facebook.com/ikarasscvlt/

Extended info
Unai Baseta Bass
Imanol Bernaola Drums
Matio Baños Guitars
Hodei G. Mendiguren Guitars
Imanol M. Aginako Vocals


Technical info

Input File: 02 - Blood Heaven.mp3
Channels : 2
Sample Rate : 44100
Precision : 16-bit
Duration : 00:08:44.44 = 23127804 samples = 39333 CDDA sectors
File Size : 21.0M
Bit Rate : 321k
Sample Encoding: MPEG audio (layer I, II or III)
Comments :
Title=Blood Heaven
Artist=Ikarass
Album=Relapse into Desolation
Tracknumber=2
Year=2020



[ Hidden Text ]

Posted by: Samaritianin Mar 21 2020, 13:31:34

Cloud Mail 320
[ Hidden Text ]

Posted by: дивин Mar 21 2020, 17:11:38

судя по превью Cult of Luna worship.

Posted by: folker Jan 13 2021, 21:11:37

Неплохо, но слишком однобразно.

Posted by: vosmidesijatye Jan 13 2021, 21:31:11

ЦИТАТА(дивин @ Mar 21 2020, 20:11:38) *
судя по превью Cult of Luna worship.


Да, только серый и невыразительный.

Всё одно лучше оригинал переслушать.

Posted by: gena Feb 23 2021, 19:20:05

Прекрасная, яркая, потрясающая работа.

Powered by Invision Power Board
© Invision Power Services