Printable Version of Topic

Click here to view this topic in its original format

Metal Area - Extreme Music Portal _ Archive _ Akral Necrosis - The Greater Absence (2020)

Posted by: smysl Sep 27 2020, 09:38:00

https://metalarea.org/images/audiocovers/2020_Sep/acov_tid341997.jpg

*Artist: https://metalarea.org/forum/index.php?showtopic=287248
*Album: The Greater Absence
*Year: 2020
*Genre: Black Metal
*Country: Romania
*Format: mp3@CBR320kbps
*Size: 151MB

Tracklist:
1.Silent Altar 05:08
2.Oldd Mirror 04:55
3.Intonation 05:18
4.In Nightmare Shades 04:48
5.Man in the Cauldron 05:12
6.Third Curse 06:21
7.Revamping the Inside 08:11
8.Plaguebound 07:53
9.I See the Bright Lights 08:01
10.Damnatio Memoriae 09:35
******************************
Total playing time: 1:05:22

https://www.facebook.com/akralnecrosis/
https://loudragemusic.bandcamp.com/album/akral-necrosis-the-greater-absence

Technical info

Input File: 01 Silent Altar.mp3
Channels : 2
Sample Rate : 44100
Precision : 16-bit
Duration : 00:05:08.62 = 13610098 samples = 23146.4 CDDA sectors
File Size : 12.5M
Bit Rate : 324k
Sample Encoding: MPEG audio (layer I, II or III)
Comments :
Title=Silent Altar
Artist=Akral Necrosis
Album=The Greater Absence
Tracknumber=1
Year=2020
Genre=Black Metal



[ Hidden Text ]

Posted by: sabr Sep 30 2020, 07:09:01

Весьма приятственный релиз,-как-то от румын не ждешь ничего в данном жанре,-так и не обратил бы внимания, если бы Ю-туб случайно не подсунул. Приятно удивили-Вроде ничего особенного, довольно быстрый блэк, не лишенный мелодий, но вот радует то, что пытаются сделать что-то свое, не пытаясь копировать кого-то конкретного. Не знаю, сколько проживет в плэйлисте, но точно больше пары прослушиваний
Решил даже старые релизы послушать )

Posted by: Storky Nov 21 2020, 17:56:39

nice atmosperic bm

Posted by: Victim of fate Nov 23 2020, 05:41:24

16 год был замечательным!!!
и тут всё что я люблю)))

Powered by Invision Power Board
© Invision Power Services