Printable Version of Topic

Click here to view this topic in its original format

Metal Area - Extreme Music Portal _ Archive _ Heiinghund - Urðrs Brønn (2020)

Posted by: Necrokilldozer Dec 12 2020, 20:19:03

http://metalarea.org/images/audiocovers/2020_Dec/acov_tid345022.jpg

*Artist: Heiinghund
*Album: Urðrs Brønn
*Year: 2020
*Genre: Atmospheric Black Metal
*Country: Norway
*Format: mp3@CBR320kbps
*Size: 164MB

Tracklist:
1. Nornene 04:06
2. Fafnir 03:00
3. Jarngygri 02:46
4. Urðr 06:32
5. Balder og Odin 03:15
6. Dvergfylgje 03:13
7. Verdande 04:29
8. Hatets kalde klinge 03:13
9. Kraakevisa 02:08
10. Fjellets klagesang 02:48
11. Hatets borg 03:43
12. Eg ska drepa deg 04:25
13. Blod ild sverd 04:03
14. Skuld saga 04:49
15. Vinterland 05:43
16. Født av alder 03:12
17. Runuheita 02:08
18. Fryktens skapning 02:40
19. Innerst i sinnet/Outro 02:58
******************************
Total playing time: 1:09:11

https://heiinghund.bandcamp.com/album/ur-rs-br-nn

Technical info

Input File: 12 - eg ska drepa deg.mp3
Channels : 2
Sample Rate : 44100
Precision : 16-bit
Duration : 00:04:25.40 = 11703920 samples = 19904.6 CDDA sectors
File Size : 10.7M
Bit Rate : 321k
Sample Encoding: MPEG audio (layer I, II or III)
Comments :
Title=eg ska drepa deg
Artist=Heiinghund
Album=Urðrs Brønn
Tracknumber=12
Year=2020
Genre=Atmospheric Black Metal



[ Hidden Text ]

Posted by: ZloY_GreY Dec 13 2020, 08:45:18

С чего вдруг Atmospheric? Raw как raw.

Posted by: igore2911 Dec 13 2020, 11:47:44

Наверное потому, что клавиши есть.

Powered by Invision Power Board
© Invision Power Services