Printable Version of Topic

Click here to view this topic in its original format

Metal Area - Extreme Music Portal _ Archive _ Terribilis - Terribilis/Грянет Суть [compilation] (2017)

Posted by: smysl Jul 25 2021, 18:51:01

https://metalarea.org/images/audiocovers/2021_Jul/acov_tid353760.jpg

*Artist: Terribilis
*Album: Terribilis/Грянет Суть [compilation]
*Year: 2017
*Genre: Black Metal
*Country: Russian Federation
*Format: mp3@CBR320kbps
*Size: 111MB

Tracklist:
1. Мерзость богова... 05:39
2. На заклание к чёрту! 04:44
3. Дары 03:05
4. Глубинный червь 04:48
5. Стань ядом 06:24
6. Монолог над могилой 05:26
7. Грянет суть 05:16
8. Мой зеркальный гость 04:06
9. Моё царство, мой трон 05:34
10. Чтобы потухли глаза... 02:54
******************************
Total playing time: 47:56

https://terribilis.bandcamp.com/album/terribilis

Technical info

Input File: 01 Мерзость богова....mp3
Channels : 2
Sample Rate : 44100
Precision : 16-bit
Duration : 00:05:37.99 = 14905535 samples = 25349.5 CDDA sectors
File Size : 13.8M
Bit Rate : 326k
Sample Encoding: MPEG audio (layer I, II or III)
Comments :
Title=Мерзость богова...
Artist=Terribilis
Album=Terribilis / Грянет Суть
Tracknumber=1
Year=2017
Genre=Black Metal



[ Hidden Text ]

Powered by Invision Power Board
© Invision Power Services