Printable Version of Topic

Click here to view this topic in its original format

Metal Area - Extreme Music Portal _ New Releases _ Infinight - Fifteen [ep] (2016)

Posted by: necroscum Jan 9 2017, 14:38:03

http://metalarea.org/images/audiocovers/2017_Jan/acov_tid281125.jpg

*Artist: Infinight
*Album: Fifteen [ep]
*Year: 2016
*Genre: Power/Thrash Metal
*Country: Germany
*Format: mp3@CBR320kbps
*Size: 46MB

Tracklist:
01. Goodbye II (This Cruel World) 05:10
02. Here To Conquer (Unplugged) 04:39
03. For The Crown 05:54
04. Through The Endless Night 05:43
******************************
Total playing time: 21:26

https://myspace.com/infinightband
https://www.facebook.com/InfiNight
https://soundcloud.com/infinight_official
https://infinight.bandcamp.com/album/fifteen

Technical info

Input File: 02-infinight-here_to_conquer_(unplugged)-c7593764.mp3
Channels : 2
Sample Rate : 44100
Precision : 16-bit
Duration : 00:04:39.98 = 12347250 samples = 20998.7 CDDA sectors
File Size : 11.4M
Bit Rate : 325k
Sample Encoding: MPEG audio (layer I, II or III)
Comments :
Title=Here to Conquer (Unplugged)
Artist=InfiNight
Album=Fifteen
Tracknumber=2/4
Year=2017
Genre=9



[ Hidden Text ]

Posted by: Genuine Thrashiac Jan 9 2017, 16:31:43

Наличие трэша здесь сомнительно.

Posted by: diflock Jan 10 2017, 04:24:40

Точнее Thrash metal тут совсем нет.

Posted by: Yarri Jan 10 2017, 10:12:53

Да, альбом в стилистике Американского павера, поэтому нотки трэша едва уловимы. Мне понравилось, кстати.

Posted by: Andrew Jan 11 2017, 18:29:05

ЦИТАТА(Genuine Thrashiac @ Jan 9 2017, 19:31:43) *
Наличие трэша здесь сомнительно.


100%! Трешем здесь и не пахнет вовсе!

Powered by Invision Power Board
© Invision Power Services