Printable Version of Topic

Click here to view this topic in its original format

Metal Area - Extreme Music Portal _ New Releases _ Gatekeeper - Quarantine (2017)

Posted by: aesteticvice Jan 11 2017, 12:23:20

https://metalarea.org/images/audiocovers/2017_Jan/acov_tid281220.png

*Artist: Gatekeeper
*Album: Quarantine
*Year: 2017
*Genre: Death Metal/Deathcore
*Country: United States
*Format: mp3@CBR320kbps
*Size: 90MB

Tracklist:
01. The Nihilist
02. Fourteen Days
03. Paragon
04. The God, The Devil
05. Spineless
06. Regression
07. Widowmaker
08. Quarantine
09. Dead Mentality
10. The Illusionist
******************************
Total playing time: 38:12

https://www.facebook.com/GatekeeperAL/
https://gatekeeperal.bandcamp.com/track/hell-on-earth-digital-single

Extended info
Matt Childers- Vocals
Tyler Stansell- Guitar
Garrett Zollar- Guitar
Hagan Dickerson - Bass
Kurtis Stoneking- Drums



Technical info

Input File: 01 The Nihilist.mp3
Channels : 2
Sample Rate : 44100
Precision : 16-bit
Duration : 00:03:52.78 = 10265422 samples = 17458.2 CDDA sectors
File Size : 9.85M
Bit Rate : 339k
Sample Encoding: MPEG audio (layer I, II or III)
Comments :
Title=The Nihilist
Artist=Gatekeeper
Album=Quarantine
Tracknumber=1/10
Year=2017
Genre=Death Metal
Discnumber=1/1



[ Hidden Text ]

Posted by: Victim of fate Jan 29 2017, 20:43:04

шпарят как роботы!!! на всю в наушниках- кач)

Powered by Invision Power Board
© Invision Power Services