Printable Version of Topic

Click here to view this topic in its original format

Metal Area - Extreme Music Portal _ Archive _ Drop Out - Drop Out (2015)

Posted by: AlexStorm Jan 11 2017, 12:30:59

http://metalarea.org/images/audiocovers/2017_Jan/acov_tid281221.jpg

*Artist: Drop Out
*Album: Drop Out
*Year: 2015
*Genre: Death Metal/Grindcore/Hardcore
*Country: Spain
*Format: mp3@CBR320kbps
*Size: 47MB

Tracklist:
01.Carcoma 03:21
02.Tormenta De Arena 01:47
03.Existir 02:04
04.Realidad Confusa 02:04
05.Cabezas Huecas 01:28
06.H.H.G. 04:21
07.Escarmiento 02:07
08.Lodo Y Larvas 02:46
******************************
Total playing time: 19:58

https://dropoutgrind.bandcamp.com/

Extended info
Free Download!


Technical info

Input File: Drop Out - Drop Out - 01 Carcoma.mp3
Channels : 2
Sample Rate : 44100
Precision : 16-bit
Duration : 00:03:21.76 = 8897704 samples = 15132.1 CDDA sectors
File Size : 8.12M
Bit Rate : 322k
Sample Encoding: MPEG audio (layer I, II or III)
Comments :
Title=Carcoma
Artist=Drop Out
Album=Drop Out
Tracknumber=1
Year=2016



[ Hidden Text ]

Powered by Invision Power Board
© Invision Power Services