Printable Version of Topic

Click here to view this topic in its original format

Metal Area - Extreme Music Portal _ New Releases _ Obedient Chaos - New Era Of Chaos (2017)

Posted by: necroscum Jan 11 2017, 12:32:05

http://metalarea.org/images/audiocovers/2017_Jan/acov_tid281222.jpg

*Artist: Obedient Chaos
*Album: New Era Of Chaos
*Year: 2017
*Genre: Melodic Death Metal/Metalcore
*Country: Finland
*Format: mp3@CBR320kbps
*Size: 101MB

Tracklist:
01. No Tears
02. Sleepwalker
03. Enough
04. Demons Reign
05. Demons Still Reign
06. Beneath the Waves
07. Riddle of Three
08. Illusions of Reality
******************************
Total playing time: 37:23

https://www.facebook.com/obedientchaos/

Technical info

Input File: 02. Sleepwalker.mp3
Channels : 2
Sample Rate : 44100
Precision : 16-bit
Duration : 00:04:15.66 = 11274650 samples = 19174.6 CDDA sectors
File Size : 11.1M
Bit Rate : 346k
Sample Encoding: MPEG audio (layer I, II or III)
Comments :
Title=Sleepwalker
Artist=Obedient Chaos
Album=New Era of Chaos
Tracknumber=2/8
Year=2017



[ Hidden Text ]

Posted by: DenisKov Jan 15 2017, 10:30:05

Третьесорт, клубешники качать.

Powered by Invision Power Board
© Invision Power Services