Printable Version of Topic

Click here to view this topic in its original format

Metal Area - Extreme Music Portal _ Archive _ Salduie - Belos (2016)

Posted by: necroscum Jan 11 2017, 12:56:49

http://metalarea.org/images/audiocovers/2017_Jan/acov_tid281223.jpg

*Artist: Salduie
*Album: Belos
*Year: 2016
*Genre: Folk Metal
*Country: Spain
*Format: mp3@CBR320kbps
*Size: 115MB

Tracklist:
01. Pax Sempronia 179 a.C.
02. Carus de Sekaiza
03. Hospitium
04. Bestias númidas
05. El aullido de Vaélico
06. Bosnerau
07. Matres
08. Los fuegos de Belenus
09. Tvrma Sallvitana
10. Netón
11. Atland
******************************
Total playing time: 49:18

https://www.facebook.com/SalduieFolkMetal

Technical info

Input File: 02. Carus de Sekaiza.mp3
Channels : 2
Sample Rate : 44100
Precision : 16-bit
Duration : 00:05:45.71 = 15245943 samples = 25928.5 CDDA sectors
File Size : 14.1M
Bit Rate : 326k
Sample Encoding: MPEG audio (layer I, II or III)
Comments :
Title=Carus de Sekaiza
Artist=Salduie
Album=Belos
Tracknumber=2
Year=2016
Genre=Folk Metal



[ Hidden Text ]

Posted by: Ulfhethnaar Jan 11 2017, 17:50:46

Альтернативная ссылка
[ Hidden Text ]

Posted by: zauber1 Jan 14 2017, 20:22:57


Posted by: avather Feb 13 2017, 12:37:56

Хороший альбом, который почти не портит испаноязычный вокал

Powered by Invision Power Board
© Invision Power Services