Printable Version of Topic

Click here to view this topic in its original format

Metal Area - Extreme Music Portal _ New Releases _ Hellcraft - Apotheosis Of War (2017)

Posted by: necroscum Jan 11 2017, 13:08:37

http://metalarea.org/images/audiocovers/2017_Jan/acov_tid281224.jpg

*Artist: http://metalarea.org/forum/index.php?showtopic=193446
*Album: Apotheosis Of War
*Year: 2017
*Genre: Death Metal
*Country: Ukraine
*Format: mp3@CBR320kbps
*Size: 77MB

Tracklist:
01. Покаяние Сквозь Боль 04:33
02. Апофеоз Войны 04:44
03. Массовое Захоронение 04:16
04. Вечная Вражда 04:04
05. Под Благословением Смерти 04:34
06. Изоляция 04:17
07. Процесс Вырождения 03:35
08. Когда Погаснет Солнце 03:42
******************************
Total playing time: 33:45

https://myspace.com/hellcraftband
https://www.facebook.com/hellcraft.official/
https://vk.com/hellcraftband
https://symbolofdomination.bandcamp.com/album/sodp088-hellcraft-apotheosis-of-war-2017
https://www.youtube.com/watch?v=coo-tYPjWdo
https://www.youtube.com/watch?v=wQmDZacfAGw

Technical info

Input File: 03. Массовое Захоронение.mp3
Channels : 2
Sample Rate : 44100
Precision : 16-bit
Duration : 00:04:16.58 = 11315046 samples = 19243.3 CDDA sectors
File Size : 10.3M
Bit Rate : 320k
Sample Encoding: MPEG audio (layer I, II or III)
Comments :
Title=Массовое захоронение
Artist=Hellcraft
Album=Apotheosis Of War
Tracknumber=3
Year=2017
Genre=22



[ Hidden Text ]

Posted by: Hell_Is_Here Feb 3 2017, 01:41:31

[ Hidden Text ]

Posted by: DarkHorde Feb 3 2017, 03:45:02

Преимущественно среднетемповый музон, и мелодии есть не плохие и ходы, но абсолютно не цепляет.

Powered by Invision Power Board
© Invision Power Services