Printable Version of Topic

Click here to view this topic in its original format

Metal Area - Extreme Music Portal _ Archive _ Necrocock - Houbařské Album (2016)

Posted by: Gelukas Jan 11 2017, 13:13:27

https://metalarea.org/images/audiocovers/2017_Jan/acov_tid281225.jpg

*Artist: Necrocock
*Album: Houbařské Album
*Year: 2016
*Genre: Dark/Doom Metal/Ambient
*Country: Czech Republic
*Format: mp3@VBR311kbps
*Size: 121MB

Tracklist:
1. Smotlacha 04:02
2. Pavučinec plyšový 03:59
3. Phallus impudicus 02:34
4. Houbový Tomáš 03:56
5. Do lesíčka 02:56
6. Nemocná 04:51
7. Klobouk 04:00
8. Otravy opojné 02:52
9. Hadovka smrdutá 04:08
10. Vrhavka 03:46
11. Boletus satanas 03:55
12. Slinotok 03:43
13. Noční houbaření 03:54
14. V houbových vodách 02:54
15. Vánoce v Hlavově ústavu 01:48 (instrumental)
******************************
Total playing time: 53:18

http://bandzone.cz/necrocock

Technical info

Input File: 02-Pavu?inec ply?ov?.mp3
Channels : 2
Sample Rate : 44100
Precision : 16-bit
Duration : 00:03:59.28 = 10552292 samples = 17946.1 CDDA sectors
File Size : 9.56M
Bit Rate : 320k
Sample Encoding: MPEG audio (layer I, II or III)
Comments :
Artist=Necrocock
Album=Houbařské Album
Year=2016
Genre=9



[ Hidden Text ]

Posted by: Buregon Jan 11 2017, 17:04:46

- , .
, .
.
, .

Powered by Invision Power Board
© Invision Power Services