Printable Version of Topic

Click here to view this topic in its original format

Metal Area - Extreme Music Portal _ New Releases _ Feasting On Darkness - The Black Cloud (2017)

Posted by: aesteticvice Jan 11 2017, 13:29:16

https://metalarea.org/images/audiocovers/2017_Jan/acov_tid281227.jpg

*Artist: Feasting On Darkness
*Album: The Black Cloud
*Year: 2017
*Genre: Death Metal
*Country: United States
*Format: mp3@CBR320kbps
*Size: 108MB

Tracklist:
01. Reborn
02. Circle of Seven Serpents
03. Inner Thorn (Sinister)
04. Bleeding Spawn
05. Fallen Empire
06. Ignite
07. Nuclear Winter
08. Beautiful Nightmare
09. The Black Cloud
10. The Dead Will Rise
11. Spineless Follower
12. Hollowed Souls
******************************
Total playing time: 47:03

Extended info


Technical info

Input File: 7 Nuclear Winter.mp3
Channels : 2
Sample Rate : 44100
Precision : 16-bit
Duration : 00:03:04.36 = 8130408 samples = 13827.2 CDDA sectors
File Size : 7.50M
Bit Rate : 325k
Sample Encoding: MPEG audio (layer I, II or III)
Comments :
Title=Nuclear Winter
Artist=Feasting on Darkness
Album=The Black Cloud
Tracknumber=7
Year=2017
Discnumber=1/1



[ Hidden Text ]

Posted by: Andrew Jan 11 2017, 14:08:51

ЦИТАТА(aesteticvice @ Jan 11 2017, 16:29:16) *
*Genre: Death Metal


Progressive Death Metal / Instrumental на мой взгляд.
Альбом то без слов!

Posted by: DarkHorde Jan 16 2017, 03:01:22

Более сорока минут инструментала, сомнительно. Коль вокала нет, так музыкой цеплять надо, но здесь ни того, ни другого.

Powered by Invision Power Board
© Invision Power Services