Printable Version of Topic

Click here to view this topic in its original format

Metal Area - Extreme Music Portal _ Archive _ Aske - Vuohi [demo] (2016)

Posted by: Borderline1991 Jan 11 2017, 13:52:40

https://metalarea.org/images/audiocovers/2017_Jan/acov_tid281231.jpg

*Artist: Aske
*Album: Vuohi [demo]
*Year: 2016
*Genre: Black Metal
*Country: Finland
*Format: mp3@CBR320kbps
*Size: 34MB

Tracklist:
1. Intro (Prelude for the Death) 00:50
2. Horns 03:41
3. Unholy Ejaculation 02:23
4. Goat Worship 03:18
5. Outro (Electric Sodomy) 02:10
******************************
Total playing time: 12:22

Extended info
Tape released by http://www.metal-archives.com/labels/Wolfsvuur_Records/116 limited to 50 copies (handnumbered).

Tape rip, scans and pictures included.


Technical info

Input File: 2. Horns.mp3
Channels : 2
Sample Rate : 44100
Precision : 16-bit
Duration : 00:03:42.09 = 9794213 samples = 16656.8 CDDA sectors
File Size : 8.88M
Bit Rate : 320k
Sample Encoding: MPEG audio (layer I, II or III)
Comments :
Title=Horns
Artist=Aske
Album=Vuohi
Tracknumber=2
Year=2016
Genre=Black Metal



[ Hidden Text ]

Posted by: rimfrost Jan 11 2017, 17:03:27

Вот это уже интересно , старый материал был очень зачётен ! спасибо за релиз !

Posted by: vasiljev_sergej Jan 14 2017, 04:25:19

[ Hidden Text ]

Posted by: Corpse_Of_The_Christ Jan 14 2017, 19:35:20


Powered by Invision Power Board
© Invision Power Services