Printable Version of Topic

Click here to view this topic in its original format

Metal Area - Extreme Music Portal _ Archive _ Busted Chops - Home (2016)

Posted by: KINO Jan 11 2017, 13:58:02

https://metalarea.org/images/audiocovers/2017_Jan/acov_tid281232.jpg

*Artist: Busted Chops
*Album: Home
*Year: 2016
*Genre: Grindcore/Powerviolence/Sludge
*Country: United States
*Format: mp3@CBR320kbps
*Size: 22MB

Tracklist:
1. A Long Way From Home 00:58
2. Dino 01:06
3. Failure Blues 01:22
4. Home 01:00
5. Blood of the Mountain 00:39
6. Syringe Symphony 01:19
7. A Short Way From Hell 01:18
8. Depression Sermon 01:38
******************************
Total playing time: 9:20

https://bustedchops.bandcamp.com/album/home

Technical info

Input File: Busted Chops - Home - 01 A Long Way From Home.mp3
Channels : 2
Sample Rate : 44100
Precision : 16-bit
Duration : 00:00:58.62 = 2585318 samples = 4396.8 CDDA sectors
File Size : 2.45M
Bit Rate : 334k
Sample Encoding: MPEG audio (layer I, II or III)
Comments :
Title=A Long Way From Home
Artist=Busted Chops
Album=Home
Tracknumber=1
Year=2016



[ Hidden Text ]

Powered by Invision Power Board
© Invision Power Services