Printable Version of Topic

Click here to view this topic in its original format

Metal Area - Extreme Music Portal _ New Releases _ Serpentshrine - Besetting The Altar (2017)

Posted by: AlexStorm Jan 11 2017, 14:10:14

http://metalarea.org/images/audiocovers/2017_Jan/acov_tid281233.jpg

*Artist: Serpentshrine
*Album: Besetting The Altar
*Year: 2017
*Genre: Black/Death Metal
*Country: United States
*Format: mp3@CBR320kbps
*Size: 100MB

Tracklist:
01.The Black Temple 02:03
02.A Journey Through the Haunted Forest 04:34
03.Transvecti Lintribus Amnem 06:28
04.The Beautiful Descent 05:34
05.Besetting the Altar 04:29
06.The Serpent's Lair 05:27
07.Unholy Affliction 06:05
08.Revelation 05:31
09.Shadowed Compline 02:52
******************************
Total playing time: 43:03

https://serpentshrine.bandcamp.com/album/besetting-the-altar

Technical info

Input File: Serpentshrine - Besetting the Altar - 02 A Journey Through the Haunted Forest.mp3
Channels : 2
Sample Rate : 44100
Precision : 16-bit
Duration : 00:04:34.13 = 12089045 samples = 20559.6 CDDA sectors
File Size : 11.0M
Bit Rate : 321k
Sample Encoding: MPEG audio (layer I, II or III)
Comments :
Title=A Journey Through the Haunted Forest
Artist=Serpentshrine
Album=Besetting the Altar
Tracknumber=2
Year=2017



[ Hidden Text ]

Powered by Invision Power Board
© Invision Power Services